Мои тайные сокровища / Himitsu no Hanazono / My Secret Cache (Синобу Ягути / Shinobu Yaguchi) [1997, Япония, комедия, приключения, дзен, DVDRip] VO (liosaa) 

Цитировать
Мои тайные сокровища / Himitsu no Hanazono / My Secret Cache
Страна: Япония
Жанр: комедия, приключения, дзен
Год выпуска: 1997
Продолжительность: 01:23:01
Перевод: Одноголосый закадровый liosaa
Субтитры: нет
Оригинальная аудиодорожка: нет
Режиссер: Синобу Ягути / Shinobu Yaguchi
В ролях: Наоми Нисида, Го Ридзю, Норико Танака, Ёдзи Танака, Кадзуэ Цуногаэ, Синобу Цурута, Хикару Идзюин, Такэтоси Наито
Описание: Смешная девчонка Сакико загрузит вас по полной своим глубоким внутренним миром, где одни только деньги-деньги-деньги... По ходу, она нечаянно влипнет в идиотскую передрягу с грабежом и потерей набитого баблом чемоданчика... Знамо дело, надо ставить на уши всё своё, в целом недалёкое, семейство, чтобы решить задачу-минимум -- найти жёлтый чемоданчик и озолотиться... Искать предстоит глубоко в горах, в гнезде молодёжного суицида, печально знаменитом лесу АОКИГАХАРА...
А уж наблюдать за тем, как одержимые страстями идиоты бьются лбами о заветную цель -- занятие сколь душеспасительное, столь и расслабляющее... Особенно если вы, в глубине души (возможно, где-то очень глубоко) -- точно такой же отчаянный и несокрушимый идиот...
(synopsis*liosaa)

*СЭМПЛ
*DVDRip (1.36 GB) + subs + original jap
*сравнение со старыми релизами (697 MB) и (814 MB)
Качество видео: DVDRip
Формат видео: AVI
Видео: 704x384 (1,85:1) 23.976 fps, XviD ~1 020 Kbps
Аудио: AC3 2.0, 48 kHz, 224 kbps (рус)

MediaInfo

Формат : AVI
Формат/Информация : Audio Video Interleave
Размер файла : 744 Мбайт
Продолжительность : 1 ч. 23 м.
Общий поток : 1253 Кбит/сек
Программа кодирования : VirtualDubMod 1.5.10.2 (build 2540/release)
Библиотека кодирования : VirtualDubMod build 2540/release
Видео
Идентификатор : 0
Формат : MPEG-4 Visual
Профиль формата : Advanced Simple@L5
Параметр BVOP формата : 1
Параметр QPel формата : Нет
Параметр GMC формата : Без точки перехода
Параметр матрицы формата : Default (MPEG)
Идентификатор кодека : XVID
Идентификатор кодека/Подсказка : XviD
Продолжительность : 1 ч. 23 м.
Битрейт : 1020 Кбит/сек
Ширина : 704 пикселя
Высота : 384 пикселя
Соотношение сторон : 1,85:1
Частота кадров : 23,976 (24000/1001) кадра/сек
Цветовое пространство : YUV
Субдискретизация насыщенности : 4:2:0
Битовая глубина : 8 бит
Тип развёртки : Прогрессивная
Метод сжатия : С потерями
Бит/(Пиксели*Кадры) : 0.157
Размер потока : 606 Мбайт (81%)
Библиотека кодирования : XviD 1.2.1 (UTC 2008-12-04)
Аудио
Идентификатор : 1
Формат : AC-3
Формат/Информация : Audio Coding 3
Режим : Dolby Digital
Параметр Endianness формата : Big
Идентификатор кодека : 2000
Продолжительность : 1 ч. 23 м.
Вид битрейта : Постоянный
Битрейт : 224 Кбит/сек
Каналы : 2 канала
Расположение каналов : Front: L R
Частота : 48,0 КГц
Частота кадров : 31,250 кадров/сек (1536 SPF)
Битовая глубина : 16 бит
Метод сжатия : С потерями
Размер потока : 133 Мбайт (18%)
Выравнивание : Разделение по промежуткам
Продолжительность промежутка : 42 мс. (1,00 видеокадр)
Время предзагрузки промежутка : 500 мс.
ServiceKind/String : Complete Main
Вы не можете начинать темы
Вы не можете отвечать на сообщения
Вы не можете редактировать свои сообщения
Вы не можете удалять свои сообщения
Вы не можете голосовать в опросах
Вы не можете прикреплять файлы к сообщениям
Вы можете скачивать файлы
!ВНИМАНИЕ!

Сайт не предоставляет электронные версии произведений, а занимается лишь коллекционированием и каталогизацией ссылок, присылаемых и публикуемых на форуме нашими читателями. Если вы являетесь правообладателем какого-либо представленного материала и не желаете, чтобы ссылка на него находилась в нашем каталоге, свяжитесь с нами, и мы незамедлительно удалим ее. Файлы для обмена на трекере предоставлены пользователями сайта, и администрация не несет ответственности за их содержание. Просьба не заливать файлы, защищенные авторскими правами, а также файлы нелегального содержания!

Искали программы, игры, дополнения, музыка mp3, аниме, аудио книги, журналы? Добро пожаловать на свободный торрент трекер Torrents, у нас можно скачать бесплатно, без смс и регистрации и прочих ограничений лучшие, отборные сборки программ, игр. Скачать торрентом не составит труда даже не опытному пользователю. Раздачи ежедневно обновляются, только лучшие и качественные раздачи, подробные описания и скриншоты. Огромная коллекция программ для работы со звуком, графикой, дизайном, а так же множество плагинов и инструментов к ним с подробной инструкцией и рекомендациями. Прошивки для навигаторов, карты. Разнообразные игры, для Windows, Linux. В коллекцие есть и старые игры любых жанров, Rpg, Action, Shooter, strategy Множество дополнений, модификаций, сценариев для популярных игр в жанре экш, рпг, гонки, стратегии, логические игры. Множество аддонов и сценариев для Microsoft Flight Simulator Большая коллекция книг, учебников. Если нет возможности купить печатное издание - смело скачивайте цифровую версию книги или, быть может, журнала. Не любите читать - можно загрузить бесплатно аудикнигу. Для веб дизайнеров и программистов так же найдется множество специализированного софта, таких как: редакторы с подсветкой, среды программирования, компоненты, системы управления базами данных, разнообразные скрипты и шаблоны. Не так давно у нас появился материал для автолюбителей и владельцев мото - оригинальные и неоригинальные каталоги запчастей, книги и журналы по ремонту и обслуживанию, видеоуроки, статьи по чип тюнингу, прошивкам. Процедура получения контента элементарная, достаточно просто скачать торрент файл и добавить его в загрузку в вашем торрент клиенте. Если у вас нет специального торрент клиента, вы можете его скачать у нас.