Польские легенды: Твардовски / Legendy Polskie: Twardowsky (Томек Багиньски / Tomasz Bagiński / Tomek Baginski) [2015, Польша, короткий метр, фэнтези, комедия, WEBRip 1080p] VO (NewStation) Sub Rus + Eng, Pol 

Цитировать
Польские легенды: Твардовски / Legendy Polskie: Twardowsky
Страна: Польша
Жанр: короткий метр, фэнтези, комедия
Год выпуска: 2015
Продолжительность: 00:08:58
Перевод: Одноголосый закадровый NewStation
Автор перевода субтитров: Von Negoziant
Оригинальная аудиодорожка: польский
Режиссер: Томек Багиньски / Tomasz Bagiński / Tomek Baginski
В ролях: Роберт Венцкевич , Александра Каспшик
Описание: Пан Твардовски сидит один на космической станции на Луне. Таковы последствия его договора с дьяволом. Скучает жутко, никак не может смириться со своей судьбой. Когда является посланница дьявола в образе красивой женщины, Твардовски просит немного времени, чтобы иметь возможность ещё раз вернуться на Землю. Понимая, что немного выторгует, он убегает от неё, хотя знает, что ненадолго. В конце концов, придёт время заплатить установленную цену.
Сэмпл: http://sendfile.su/1347439
Качество видео: WEBRip
Формат видео: MKV
Видео: AVC, 1920x1080, 16:9, 25,000 кадров/сек, 2709 Кбит/сек
Аудио #1: [RUS] 48 kHz, MP3, 2ch, ~192 kbps
Аудио #2: [POL] 44 kHz, AAC, 2ch, ~126 kbps
субтитры: русские; английские и польские

MediaInfo

Общее
Уникальный идентификатор : 229648727316691789835600347844680838630 (0xACC4BC6E9F54559089922B74E92B6DE6)
Полное имя : D:\Legendy Polskie TWARDOWSKY - NewStation.mkv
Формат : Matroska
Версия формата : Version 4 / Version 2
Размер файла : 194 Мбайт
Продолжительность : 8 м. 58 с.
Режим общего битрейта : Переменный
Общий поток : 3027 Кбит/сек
Дата кодирования : UTC 2017-07-08 17:48:04
Программа кодирования : mkvmerge v12.0.0 ('Trust / Lust') 32bit
Библиотека кодирования : libebml v1.3.4 + libmatroska v1.4.5
Видео
Идентификатор : 1
Формат : AVC
Формат/Информация : Advanced Video Codec
Профиль формата : High@L4
Параметр CABAC формата : Да
Параметр RefFrames формата : 2 кадра
Идентификатор кодека : V_MPEG4/ISO/AVC
Продолжительность : 8 м. 58 с.
Битрейт : 2709 Кбит/сек
Ширина : 1920 пикселей
Высота : 1080 пикселей
Соотношение сторон : 16:9
Режим частоты кадров : Постоянный
Частота кадров : 25,000 кадров/сек
Цветовое пространство : YUV
Субдискретизация насыщенности : 4:2:0
Битовая глубина : 8 бит
Тип развёртки : Прогрессивная
Бит/(Пиксели*Кадры) : 0.052
Размер потока : 174 Мбайт (89%)
Default : Да
Forced : Нет
Цветовой диапазон : Limited
Основные цвета : BT.709
Характеристики трансфера : BT.709
Коэффициенты матрицы : BT.709
Аудио #1
Идентификатор : 2
Формат : MPEG Audio
Версия формата : Version 1
Профиль формата : Layer 3
Режим : Joint stereo
Расширение режима : MS Stereo
Идентификатор кодека : A_MPEG/L3
Идентификатор кодека/Подсказка : MP3
Продолжительность : 8 м. 58 с.
Вид битрейта : Переменный
Битрейт : 192 Кбит/сек
Каналы : 2 канала
Частота : 48,0 КГц
Частота кадров : 41,667 кадра/сек (1152 SPF)
Метод сжатия : С потерями
Размер потока : 12,2 Мбайт (6%)
Заголовок : Rus NewStation
Default : Да
Forced : Да
Аудио #2
Идентификатор : 3
Формат : AAC
Формат/Информация : Advanced Audio Codec
Профиль формата : LC
Идентификатор кодека : A_AAC
Продолжительность : 8 м. 58 с.
Битрейт : 126 Кбит/сек
Каналы : 2 канала
Расположение каналов : Front: L R
Частота : 44,1 КГц
Частота кадров : 43,066 кадра/сек (1024 SPF)
Метод сжатия : С потерями
Размер потока : 8,06 Мбайт (4%)
Заголовок : Original
Default : Нет
Forced : Нет
Текст #1
Идентификатор : 4
Формат : UTF-8
Идентификатор кодека : S_TEXT/UTF8
Идентификатор кодека/Информация : UTF-8 Plain Text
Продолжительность : 8 м. 34 с.
Битрейт : 101 бит/сек
ElementCount : 102
Размер потока : 6,35 Кбайт (0%)
Заголовок : Rus Sub
Default : Да
Forced : Нет
Текст #2
Идентификатор : 5
Формат : UTF-8
Идентификатор кодека : S_TEXT/UTF8
Идентификатор кодека/Информация : UTF-8 Plain Text
Продолжительность : 7 м. 23 с.
Битрейт : 62 бит/сек
ElementCount : 90
Размер потока : 3,40 Кбайт (0%)
Заголовок : Eng Sub
Default : Нет
Forced : Нет
Текст #3
Идентификатор : 6
Формат : UTF-8
Идентификатор кодека : S_TEXT/UTF8
Идентификатор кодека/Информация : UTF-8 Plain Text
Продолжительность : 7 м. 19 с.
Битрейт : 77 бит/сек
ElementCount : 94
Размер потока : 4,17 Кбайт (0%)
Заголовок : Pol Sub
Default : Нет
Forced : Нет

Скриншот c названием фильма

Скриншоты

Вы не можете начинать темы
Вы не можете отвечать на сообщения
Вы не можете редактировать свои сообщения
Вы не можете удалять свои сообщения
Вы не можете голосовать в опросах
Вы не можете прикреплять файлы к сообщениям
Вы можете скачивать файлы
!ВНИМАНИЕ!

Сайт не предоставляет электронные версии произведений, а занимается лишь коллекционированием и каталогизацией ссылок, присылаемых и публикуемых на форуме нашими читателями. Если вы являетесь правообладателем какого-либо представленного материала и не желаете, чтобы ссылка на него находилась в нашем каталоге, свяжитесь с нами, и мы незамедлительно удалим ее. Файлы для обмена на трекере предоставлены пользователями сайта, и администрация не несет ответственности за их содержание. Просьба не заливать файлы, защищенные авторскими правами, а также файлы нелегального содержания!

Искали программы, игры, дополнения, музыка mp3, аниме, аудио книги, журналы? Добро пожаловать на свободный торрент трекер Torrents, у нас можно скачать бесплатно, без смс и регистрации и прочих ограничений лучшие, отборные сборки программ, игр. Скачать торрентом не составит труда даже не опытному пользователю. Раздачи ежедневно обновляются, только лучшие и качественные раздачи, подробные описания и скриншоты. Огромная коллекция программ для работы со звуком, графикой, дизайном, а так же множество плагинов и инструментов к ним с подробной инструкцией и рекомендациями. Прошивки для навигаторов, карты. Разнообразные игры, для Windows, Linux. В коллекцие есть и старые игры любых жанров, Rpg, Action, Shooter, strategy Множество дополнений, модификаций, сценариев для популярных игр в жанре экш, рпг, гонки, стратегии, логические игры. Множество аддонов и сценариев для Microsoft Flight Simulator Большая коллекция книг, учебников. Если нет возможности купить печатное издание - смело скачивайте цифровую версию книги или, быть может, журнала. Не любите читать - можно загрузить бесплатно аудикнигу. Для веб дизайнеров и программистов так же найдется множество специализированного софта, таких как: редакторы с подсветкой, среды программирования, компоненты, системы управления базами данных, разнообразные скрипты и шаблоны. Не так давно у нас появился материал для автолюбителей и владельцев мото - оригинальные и неоригинальные каталоги запчастей, книги и журналы по ремонту и обслуживанию, видеоуроки, статьи по чип тюнингу, прошивкам. Процедура получения контента элементарная, достаточно просто скачать торрент файл и добавить его в загрузку в вашем торрент клиенте. Если у вас нет специального торрент клиента, вы можете его скачать у нас.