Полный контакт / Мертвая хватка / Xia dao Gao Fei / Full Contact (Ринго Лам / Ringo Lam) [1992, Гонконг, Боевик, DVDRip] AVO (Сергей Кузнецов) + Original Chi 

Цитировать
Полный контакт / Мертвая хватка / Xia dao Gao Fei / Full Contact
«Betrayed. Double-Crossed. Left for Dead»
Страна: Гонконг
Жанр: Боевик
Год выпуска: 1992
Продолжительность: 01:34:44
Перевод: Авторский (одноголосый закадровый) Сергей Кузнецов
Субтитры: нет
Оригинальная аудиодорожка: китайский
Режиссер: Ринго Лам / Ringo Lam
В ролях: Чоу Юнь-Фат, Саймон Ям, Энн Бриджуотер, Энтони Вон, Бонни Фу, Фрэнки Чин, Джеки Чунг, Wing-Cheung Cheung, Хун Чун, Виктор Хон
Описание: На улицах Бангкока каждый китаец сможет найти себе место. Например, крутой парень Джефф работал одно время вышибалой в баре, но продолжалось это совсем недолго. Вступившись однажды за своего приятеля Сэма, он быстро оказался среди личных врагов босса местной китайской мафии Чуна, которому Сэм был должен приличных денег. Понимая, что в Бангкоке им теперь нет места, друзья решают вернуться в Гонконг, но сначала все же заработать приличных денег на каком-нибудь гоп-стопе. Для этого Сэм знакомит Джеффа со своим кузеном Джаджем, который уже довольно давно бомбит со своей отмороженной бригадой местные ювелирные магазины. К сожалению, накануне подготовленного налета на машину инкассаторов босс Чун встречает Джаджа и просит его "похоронить" Джеффа на этом же задании. Связанный с Чуном деловыми соглашениями Джадж соглашается это сделать, и, в результате, уже спустя сутки Джефф остается под обломками взорванного дома. С пулей в груди и без оторванных выстрелом пальцев. Ясен перец, что он выживает и собирается мстить. При этом реально мстить...
Доп. информация: Дорожка с С. Кузнецовым синхронизирована и наложена ale_x2008 при помощи Sony Vegas и VirtualDubMod.
За оцифрованную с VHS дорожку благодарим - d_rocker
P.S. 00:59:02 - 01:00:53 и 01:30:06 - 01:30:25 - вставки с переводом С. Визгунова.

Релиз
Сэмпл: http://yadi.sk/i/wIbBktnu3MjvDj
Качество видео: DVDRip
Формат видео: AVI
Видео: XviD build 46, 720x384 (1.88:1), 25 fps, 1554 kbps avg, 0.23 bit/pixel
Аудио: AC3 Dolby Digital, 48000Hz 2/0 (L,R) ch (mono), 192.00 kbps avg
Аудио 2: 48 kHz, AC3 Dolby Digital, 3/2 (L,C,R,l,r) + LFE ch, ~448.00 kbps avg

MediaInfo

Полный контакт - Full Contact [by ale_x2008].avi
Format : AVI
Format/Info : Audio Video Interleave
File size : 1.46 GiB
Duration : 1 h 34 min
Overall bit rate : 2 209 kb/s
Movie name : Полный контакт - Full Contact [by ale_x2008]
Director : by ale_x2008
Writing application : VirtualDubMod 1.5.10.2 (build 2540/release)
Copyright : Edich2
Comment : RuTracker.org
Video
ID : 0
Format : MPEG-4 Visual
Format profile : Advanced Simple@L5
Format settings, BVOP : 1
Format settings, QPel : No
Format settings, GMC : No warppoints
Format settings, Matrix : Custom
Codec ID : XVID
Codec ID/Hint : XviD
Duration : 1 h 34 min
Bit rate : 1 554 kb/s
Width : 720 pixels
Height : 384 pixels
Display aspect ratio : 1.85:1
Frame rate : 25.000 FPS
Color space : YUV
Chroma subsampling : 4:2:0
Bit depth : 8 bits
Scan type : Progressive
Compression mode : Lossy
Bits/(Pixel*Frame) : 0.225
Stream size : 1.03 GiB (70%)
Writing library : XviD 1.1.2 (UTC 2006-11-01)
Audio #1
ID : 1
Format : AC-3
Format/Info : Audio Coding 3
Format settings, Endianness : Big
Codec ID : 2000
Duration : 1 h 34 min
Bit rate mode : Constant
Bit rate : 192 kb/s
Channel(s) : 2 channels
Channel positions : Front: L R
Sampling rate : 48.0 kHz
Frame rate : 31.250 FPS (1536 spf)
Bit depth : 16 bits
Compression mode : Lossy
Stream size : 130 MiB (9%)
Alignment : Split accross interleaves
Interleave, duration : 40 ms (1.00 video frame)
Interleave, preload duratio : 500 ms
Service kind : Complete Main
Audio #2
ID : 2
Format : AC-3
Format/Info : Audio Coding 3
Format settings, Endianness : Big
Codec ID : 2000
Duration : 1 h 34 min
Bit rate mode : Constant
Bit rate : 448 kb/s
Channel(s) : 6 channels
Channel positions : Front: L C R, Side: L R, LFE
Sampling rate : 48.0 kHz
Frame rate : 31.250 FPS (1536 spf)
Bit depth : 16 bits
Compression mode : Lossy
Stream size : 304 MiB (20%)
Alignment : Split accross interleaves
Interleave, duration : 40 ms (1.00 video frame)
Interleave, preload duratio : 500 ms
Service kind : Complete Main

Скриншоты



Вы не можете начинать темы
Вы не можете отвечать на сообщения
Вы не можете редактировать свои сообщения
Вы не можете удалять свои сообщения
Вы не можете голосовать в опросах
Вы не можете прикреплять файлы к сообщениям
Вы можете скачивать файлы
!ВНИМАНИЕ!

Сайт не предоставляет электронные версии произведений, а занимается лишь коллекционированием и каталогизацией ссылок, присылаемых и публикуемых на форуме нашими читателями. Если вы являетесь правообладателем какого-либо представленного материала и не желаете, чтобы ссылка на него находилась в нашем каталоге, свяжитесь с нами, и мы незамедлительно удалим ее. Файлы для обмена на трекере предоставлены пользователями сайта, и администрация не несет ответственности за их содержание. Просьба не заливать файлы, защищенные авторскими правами, а также файлы нелегального содержания!

Искали программы, игры, дополнения, музыка mp3, аниме, аудио книги, журналы? Добро пожаловать на свободный торрент трекер Torrents, у нас можно скачать бесплатно, без смс и регистрации и прочих ограничений лучшие, отборные сборки программ, игр. Скачать торрентом не составит труда даже не опытному пользователю. Раздачи ежедневно обновляются, только лучшие и качественные раздачи, подробные описания и скриншоты. Огромная коллекция программ для работы со звуком, графикой, дизайном, а так же множество плагинов и инструментов к ним с подробной инструкцией и рекомендациями. Прошивки для навигаторов, карты. Разнообразные игры, для Windows, Linux. В коллекцие есть и старые игры любых жанров, Rpg, Action, Shooter, strategy Множество дополнений, модификаций, сценариев для популярных игр в жанре экш, рпг, гонки, стратегии, логические игры. Множество аддонов и сценариев для Microsoft Flight Simulator Большая коллекция книг, учебников. Если нет возможности купить печатное издание - смело скачивайте цифровую версию книги или, быть может, журнала. Не любите читать - можно загрузить бесплатно аудикнигу. Для веб дизайнеров и программистов так же найдется множество специализированного софта, таких как: редакторы с подсветкой, среды программирования, компоненты, системы управления базами данных, разнообразные скрипты и шаблоны. Не так давно у нас появился материал для автолюбителей и владельцев мото - оригинальные и неоригинальные каталоги запчастей, книги и журналы по ремонту и обслуживанию, видеоуроки, статьи по чип тюнингу, прошивкам. Процедура получения контента элементарная, достаточно просто скачать торрент файл и добавить его в загрузку в вашем торрент клиенте. Если у вас нет специального торрент клиента, вы можете его скачать у нас.