Самоубийство влюбленных в Нисидзин / Double Suicide at Nishijin / Nishijin Shinju (Ёити Такабаяси / Yoichi Takabayashi) [1977, Япония, драма, DVDRip] Original Jap + Sub Rus 

Цитировать
Самоубийство влюбленных в Нисидзин / Double Suicide at Nishijin / Nishijin Shinju / 西陣心中
Страна: Япония
Жанр: драма
Год выпуска: 1977
Продолжительность: 01:49:48
Перевод: Субтитры русские - дед_сто_лет©
Оригинальная аудиодорожка: японский
Режиссер: Ёити Такабаяси / Yoichi Takabayashi
В ролях: Ёсиэ СИМАМУРА, Масахиро МИЦУДА, Ёсио ЦУТИЯ, Юко КУСУНОГИ, Акира НАКАО, Акира ОИДЗУМИ, Гоити ЯМАДА, Микио НАРИТА, Акира НАГОЯ
Описание: Нисидзин - старинный квартал Киото, знаменитый своими ткачами, здесь создаются самые лучшие ткани ручной работы. Жизнь Юми Нодзава не складывается, чтобы спастись от грязи этого мира, она пытается устроиться на работу в Нисидзин, чтобы всю жизнь провести возле этой красоты.
Ёити Такабаяси стал не только режиссёром, но и оператором, продюсером и автором идеи этого фильма.©
> > > > >
Качество видео: DVDRip
Формат видео: AVI
Видео: 640x480 (1.33:1), 23.976 fps, XviD build 50 ~1667 kbps avg, 0.23 bit/pixel
Аудио: 48 kHz, MPEG Layer 3, 2 ch, ~192.00 kbps avg
Формат субтитров: softsub (SRT)
Доп. информация о субтитрах: дед_сто_лет

Пример субтитров

654
00:52:53,537 --> 00:52:54,845
... вот глупость!
655
00:52:55,740 --> 00:52:57,947
Я первый раз вижу такие красивые руки.
656
00:52:59,243 --> 00:53:01,018
Да ладно, хватит тебе!
657
00:53:04,415 --> 00:53:05,917
Юми-тян, пойдем домой!
658
00:53:06,617 --> 00:53:08,619
Нам влетит.
659
00:53:19,230 --> 00:53:21,608
Хироюки-сан. Я тебе не нравлюсь?
660
00:53:22,800 --> 00:53:24,302
Ты любишь хозяйку?
661
00:53:25,369 --> 00:53:26,780
Я её ненавижу!
662
00:53:27,772 --> 00:53:29,251
Она мне противна!
663
00:53:36,980 --> 00:53:38,288
Хироюки-сан.
664
00:53:38,582 --> 00:53:39,788
Иди сюда.
665
00:53:40,884 --> 00:53:42,488
Скорее!
666
00:53:52,696 --> 00:53:53,970
Юми-тян.
667
00:53:54,865 --> 00:53:56,173
Почему?
668
00:53:57,534 --> 00:53:58,706
Почему?
669
00:54:05,809 --> 00:54:07,220
Черт!
670
00:54:07,811 --> 00:54:10,314
Опять она меня продинамила!
671
00:54:17,821 --> 00:54:19,232
Ну погоди у меня!
672
00:54:39,977 --> 00:54:41,285
Хироюки-сан.
673
00:54:42,546 --> 00:54:44,787
Ты ничего не хочешь меня спросить?
674
00:54:47,117 --> 00:54:48,494
Для меня...
675
00:54:49,386 --> 00:54:50,990
... это...

MediaInfo

General
Complete name : C:\Torrents\[ASIA]\Nishijin.Shinju(1977)Yoichi.Takabayashi\Nishijin.Shinju(1977)Yoichi.Takabayashi.avi
Format : AVI
Format/Info : Audio Video Interleave
File size : 1.43 GiB
Duration : 1h 49mn
Overall bit rate : 1 869 Kbps
Writing application : VirtualDubMod 1.5.4.1 (build 2178/release)
Writing library : VirtualDub-MPEG2 build 24600/release
Video
ID : 0
Format : MPEG-4 Visual
Format profile : Advanced Simple@L5
Format settings, BVOP : 1
Format settings, QPel : No
Format settings, GMC : No warppoints
Format settings, Matrix : Custom
Codec ID : XVID
Codec ID/Hint : XviD
Duration : 1h 49mn
Bit rate : 1 668 Kbps
Width : 640 pixels
Height : 480 pixels
Display aspect ratio : 4:3
Frame rate : 23.976 fps
Color space : YUV
Chroma subsampling : 4:2:0
Bit depth : 8 bits
Scan type : Progressive
Compression mode : Lossy
Bits/(Pixel*Frame) : 0.226
Stream size : 1.28 GiB (89%)
Writing library : XviD 1.2.1 (UTC 2008-12-04)
Audio
ID : 1
Format : MPEG Audio
Format version : Version 1
Format profile : Layer 3
Mode : Joint stereo
Mode extension : MS Stereo
Codec ID : 55
Codec ID/Hint : MP3
Duration : 1h 49mn
Bit rate mode : Constant
Bit rate : 192 Kbps
Channel(s) : 2 channels
Sampling rate : 48.0 KHz
Compression mode : Lossy
Stream size : 151 MiB (10%)
Alignment : Aligned on interleaves
Interleave, duration : 42 ms (1.00 video frame)
Interleave, preload duration : 504 ms
Writing library : LAME3.98r
Encoding settings : -m j -V 4 -q 2 -lowpass 18.6 -b 192

Скриншот c названием фильма

Скриншоты

Вы не можете начинать темы
Вы не можете отвечать на сообщения
Вы не можете редактировать свои сообщения
Вы не можете удалять свои сообщения
Вы не можете голосовать в опросах
Вы не можете прикреплять файлы к сообщениям
Вы можете скачивать файлы
!ВНИМАНИЕ!

Сайт не предоставляет электронные версии произведений, а занимается лишь коллекционированием и каталогизацией ссылок, присылаемых и публикуемых на форуме нашими читателями. Если вы являетесь правообладателем какого-либо представленного материала и не желаете, чтобы ссылка на него находилась в нашем каталоге, свяжитесь с нами, и мы незамедлительно удалим ее. Файлы для обмена на трекере предоставлены пользователями сайта, и администрация не несет ответственности за их содержание. Просьба не заливать файлы, защищенные авторскими правами, а также файлы нелегального содержания!

Искали программы, игры, дополнения, музыка mp3, аниме, аудио книги, журналы? Добро пожаловать на свободный торрент трекер Torrents, у нас можно скачать бесплатно, без смс и регистрации и прочих ограничений лучшие, отборные сборки программ, игр. Скачать торрентом не составит труда даже не опытному пользователю. Раздачи ежедневно обновляются, только лучшие и качественные раздачи, подробные описания и скриншоты. Огромная коллекция программ для работы со звуком, графикой, дизайном, а так же множество плагинов и инструментов к ним с подробной инструкцией и рекомендациями. Прошивки для навигаторов, карты. Разнообразные игры, для Windows, Linux. В коллекцие есть и старые игры любых жанров, Rpg, Action, Shooter, strategy Множество дополнений, модификаций, сценариев для популярных игр в жанре экш, рпг, гонки, стратегии, логические игры. Множество аддонов и сценариев для Microsoft Flight Simulator Большая коллекция книг, учебников. Если нет возможности купить печатное издание - смело скачивайте цифровую версию книги или, быть может, журнала. Не любите читать - можно загрузить бесплатно аудикнигу. Для веб дизайнеров и программистов так же найдется множество специализированного софта, таких как: редакторы с подсветкой, среды программирования, компоненты, системы управления базами данных, разнообразные скрипты и шаблоны. Не так давно у нас появился материал для автолюбителей и владельцев мото - оригинальные и неоригинальные каталоги запчастей, книги и журналы по ремонту и обслуживанию, видеоуроки, статьи по чип тюнингу, прошивкам. Процедура получения контента элементарная, достаточно просто скачать торрент файл и добавить его в загрузку в вашем торрент клиенте. Если у вас нет специального торрент клиента, вы можете его скачать у нас.