Любовь и ненависть / Принц / Rajkumar (Панкадж Парашар / Pankaj Parashar) [1996, Индия, фэнтези, триллер, драма, DVDRip] DVO 

Цитировать
Любовь и ненависть / Принц / Rajkumar
Страна: Индия
Производство: Tutu Films
Жанр: фэнтези, триллер, драма
Год выпуска: 1996
Продолжительность: 02:30:24
Перевод: Профессиональный (многоголосый закадровый)
Субтитры: нет
Режиссер: Панкадж Парашар / Pankaj Parashar
В ролях: Насируддин Шах, Анил Капур, Мадхури Дикшит, Дэнни Дензонгпа, Рина Рой, Фарида Джалал, Аруна Ирани, Виджаендра Гхатге, Прадип Рават, Аша Шарма, Трипти Джоши, Хариш Патель, Арун Бали, Р.С. Малик, Тарун Шукла, Санджай Мишра, Сушил Парашара, Сумит Патхак, Таппу
Описание: Мужа Рани Маа убили по приказу премьер-министра соседнего королевства Ман Сингха. Премьер-министр в свою очередь возлагает ответственность за это преступление на своего короля, отца прелестной девушки Раджкумари. Рани Маа клянется отомстить за смерть мужа. У Ман Сингха есть брат-близнец, не злой и немного наивный Сурджан Сингх. Рани Маа потрясена и ошеломлена, когда узнает, что ее единственный сын, Раджкумар любит Раджкумари. Она категорически против этого брака, в то время как Раджкумар ни перед чем не остановится, чтобы жениться на своей возлюбленной. Как можно породниться с людьми убившими их мужа и отца?
Описание с DVD: Княжества «Аравали» и «Тамбор» с давних времен находятся в состоянии войны. Любящие друг друга Принц княжества "Аравали" и принцесса "Тамбора" Вишаха, - объединяют силы и кладут конец многолетней смертельной вражде, принося долгожданный мир своим народам.
Доп. информация: Рип, сведение и синхронизация звука: pca1962
Русская звуковая дорожка - kran1
На песнях звук с оригинальной дорожки-Уважаемые любители Индийского кино!!!
Это очередной редкий Индийский фильм с прекрасными актерами - Анил Капуром и Мадхури Дикшит! Наслаждайтесь !!!
Приятного всем просмотра!!!
- - -Качество видео: DVDRip
Формат видео: AVI
Видео: XviD 720 x 304 23.976 fps 1801 Кбит/сек
Аудио: Русский - AC3 192 Кбит/сек, 2 канала (L R), 48,0 КГц

Скриншот c названием фильма

MI

Общее
Полное имя : Любовь и ненависть (Принц) Rajkumar (Индия, 1996).avi
Формат : AVI
Формат/Информация : Audio Video Interleave
Профиль формата : OpenDML
Размер файла : 2,11 Гбайт
Продолжительность : 2 ч. 30 м.
Общий поток : 2006 Кбит/сек
Программа кодирования : VirtualDubModRus 1.5.10.2 (build 2542/release)
Библиотека кодирования : VirtualDubMod build 2542/release
Видео
Идентификатор : 0
Формат : MPEG-4 Visual
Профиль формата : Advanced Simple@L5
Параметр BVOP формата : 2
Параметр QPel формата : Нет
Параметр GMC формата : Без точки перехода
Параметр матрицы формата : Default (MPEG)
Идентификатор кодека : XVID
Идентификатор кодека/Подсказка : XviD
Продолжительность : 2 ч. 30 м.
Битрейт : 1801 Кбит/сек
Ширина : 720 пикселей
Высота : 304 пикселя
Соотношение сторон : 2,35:1
Частота кадров : 23,976 (24000/1001) кадра/сек
Цветовое пространство : YUV
Субдискретизация насыщенности : 4:2:0
Битовая глубина : 8 бит
Тип развёртки : Прогрессивная
Метод сжатия : С потерями
Бит/(Пиксели*Кадры) : 0.343
Размер потока : 1,89 Гбайт (90%)
Библиотека кодирования : XviD 1.2.1 (UTC 2008-12-04)
Аудио
Идентификатор : 1
Формат : AC-3
Формат/Информация : Audio Coding 3
Параметр Endianness формата : Big
Идентификатор кодека : 2000
Продолжительность : 2 ч. 30 м.
Вид битрейта : Постоянный
Битрейт : 192 Кбит/сек
Каналы : 2 канала
Расположение каналов : Front: L R
Частота : 48,0 КГц
Частота кадров : 31,250 кадров/сек (1536 SPF)
Битовая глубина : 16 бит
Метод сжатия : С потерями
Размер потока : 207 Мбайт (10%)
Выравнивание : Разделение по промежуткам
Продолжительность промежутка : 42 мс. (1,00 видеокадр)
Время предзагрузки промежутка : 500 мс.
ServiceKind/String : Complete Main
Ссылки на мои файлы Раздача
Вы не можете начинать темы
Вы не можете отвечать на сообщения
Вы не можете редактировать свои сообщения
Вы не можете удалять свои сообщения
Вы не можете голосовать в опросах
Вы не можете прикреплять файлы к сообщениям
Вы можете скачивать файлы
!ВНИМАНИЕ!

Сайт не предоставляет электронные версии произведений, а занимается лишь коллекционированием и каталогизацией ссылок, присылаемых и публикуемых на форуме нашими читателями. Если вы являетесь правообладателем какого-либо представленного материала и не желаете, чтобы ссылка на него находилась в нашем каталоге, свяжитесь с нами, и мы незамедлительно удалим ее. Файлы для обмена на трекере предоставлены пользователями сайта, и администрация не несет ответственности за их содержание. Просьба не заливать файлы, защищенные авторскими правами, а также файлы нелегального содержания!

Искали программы, игры, дополнения, музыка mp3, аниме, аудио книги, журналы? Добро пожаловать на свободный торрент трекер Torrents, у нас можно скачать бесплатно, без смс и регистрации и прочих ограничений лучшие, отборные сборки программ, игр. Скачать торрентом не составит труда даже не опытному пользователю. Раздачи ежедневно обновляются, только лучшие и качественные раздачи, подробные описания и скриншоты. Огромная коллекция программ для работы со звуком, графикой, дизайном, а так же множество плагинов и инструментов к ним с подробной инструкцией и рекомендациями. Прошивки для навигаторов, карты. Разнообразные игры, для Windows, Linux. В коллекцие есть и старые игры любых жанров, Rpg, Action, Shooter, strategy Множество дополнений, модификаций, сценариев для популярных игр в жанре экш, рпг, гонки, стратегии, логические игры. Множество аддонов и сценариев для Microsoft Flight Simulator Большая коллекция книг, учебников. Если нет возможности купить печатное издание - смело скачивайте цифровую версию книги или, быть может, журнала. Не любите читать - можно загрузить бесплатно аудикнигу. Для веб дизайнеров и программистов так же найдется множество специализированного софта, таких как: редакторы с подсветкой, среды программирования, компоненты, системы управления базами данных, разнообразные скрипты и шаблоны. Не так давно у нас появился материал для автолюбителей и владельцев мото - оригинальные и неоригинальные каталоги запчастей, книги и журналы по ремонту и обслуживанию, видеоуроки, статьи по чип тюнингу, прошивкам. Процедура получения контента элементарная, достаточно просто скачать торрент файл и добавить его в загрузку в вашем торрент клиенте. Если у вас нет специального торрент клиента, вы можете его скачать у нас.