Маленькие бойцы / Little Fighters (Ивана Лалович / Ivana Lalovic) [2010, Босния и Герцеговина, Швейцария, драма, короткометражный, WEB-DLRip-AVC] VO + Sub Rus 

Цитировать
Маленькие бойцы / Little Fighters
Страна: Босния и Герцеговина, Швейцария
Жанр: драма, короткометражный
Год выпуска: 2010
Продолжительность: 00:15:56
Перевод: Одноголосый закадровый
Субтитры: русские
Оригинальная аудиодорожка: боснийский
Режиссер: Ивана Лалович / Ivana Lalovic
В ролях: Давид Хаджич / David Hadzic, Edis Livnjak, Enes Salkovic
Описание: Детство Харуна и его сестры Селмы проходит в охваченном войной регионе, от ужаса которой они пытаются спрятаться в вымышленном мире комиксов...
Сэмпл: http://multi-up.com/1167074
Качество видео: WEB-DLRip-AVC
Формат видео: MKV
Видео: AVC at 342 Кбит/сек : 640 x 360 (1.778) at 25.000 fps
Аудио 1: AAC at 72,0 Кбит/сек : 2 канала, 88,2 КГц / 44,1 КГц Language : ru
Аудио 2: AAC at 83,7 Кбит/сек : 2 канала, 44,1 КГц боснийский
Формат субтитров: prerendered (IDX+SUB)
Доп. информация о субтитрах: Русские отключаемые (vlad555), английские встроенные неотключаемые

MediaInfo

Общее
Уникальный идентификатор : 170448727300160186690818011812365699805 (0x803B3B14FD067969A9CBCDA5F5E98ADD)
Полное имя : F:\С моей озвучкой\Маленькие бойцы.mkv
Формат : Matroska
Версия формата : Version 4 / Version 2
Размер файла : 75,1 Мбайт
Продолжительность : 21 м. 0 с.
Общий поток : 500 Кбит/сек
Дата кодирования : UTC 2017-09-03 21:25:48
Программа кодирования : mkvmerge v7.9.0 ('Birds') 64bit
Библиотека кодирования : libebml v1.3.1 + libmatroska v1.4.2
Видео
Идентификатор : 1
Формат : AVC
Формат/Информация : Advanced Video Codec
Профиль формата : High@L3.1
Параметр CABAC формата : Да
Параметр RefFrames формата : 4 кадра
Идентификатор кодека : V_MPEG4/ISO/AVC
Продолжительность : 21 м. 0 с.
Битрейт : 342 Кбит/сек
Ширина : 640 пикселей
Высота : 360 пикселей
Соотношение сторон : 16:9
Режим частоты кадров : Постоянный
Частота кадров : 25,000 кадров/сек
Цветовое пространство : YUV
Субдискретизация насыщенности : 4:2:0
Битовая глубина : 8 бит
Тип развёртки : Прогрессивная
Бит/(Пиксели*Кадры) : 0.059
Размер потока : 51,4 Мбайт (68%)
Библиотека кодирования : Vimeo Encoder
Default : Да
Forced : Нет
Аудио #1
Идентификатор : 2
Формат : AAC
Формат/Информация : Advanced Audio Codec
Профиль формата : HE-AAC / LC
Идентификатор кодека : A_AAC
Продолжительность : 20 м. 59 с.
Битрейт : 72,0 Кбит/сек
Каналы : 2 канала
Расположение каналов : Front: L R
Частота : 88,2 КГц / 44,1 КГц
Частота кадров : 43,066 кадра/сек (1024 SPF)
Метод сжатия : С потерями
Размер потока : 10,8 Мбайт (14%)
Язык : Russian
Default : Да
Forced : Нет
Аудио #2
Идентификатор : 3
Формат : AAC
Формат/Информация : Advanced Audio Codec
Профиль формата : LC
Идентификатор кодека : A_AAC
Продолжительность : 21 м. 0 с.
Битрейт : 83,7 Кбит/сек
Каналы : 2 канала
Расположение каналов : Front: L R
Частота : 44,1 КГц
Частота кадров : 43,066 кадра/сек (1024 SPF)
Метод сжатия : С потерями
Размер потока : 12,6 Мбайт (17%)
Default : Нет
Forced : Нет
Текст
Идентификатор : 4
Формат : UTF-8
Идентификатор кодека : S_TEXT/UTF8
Идентификатор кодека/Информация : UTF-8 Plain Text
Продолжительность : 14 м. 25 с.
Битрейт : 53 бит/сек
ElementCount : 125
Размер потока : 5,60 Кбайт (0%)
Язык : Russian
Default : Да
Forced : Нет

Скриншоты

Вы не можете начинать темы
Вы не можете отвечать на сообщения
Вы не можете редактировать свои сообщения
Вы не можете удалять свои сообщения
Вы не можете голосовать в опросах
Вы не можете прикреплять файлы к сообщениям
Вы можете скачивать файлы
!ВНИМАНИЕ!

Сайт не предоставляет электронные версии произведений, а занимается лишь коллекционированием и каталогизацией ссылок, присылаемых и публикуемых на форуме нашими читателями. Если вы являетесь правообладателем какого-либо представленного материала и не желаете, чтобы ссылка на него находилась в нашем каталоге, свяжитесь с нами, и мы незамедлительно удалим ее. Файлы для обмена на трекере предоставлены пользователями сайта, и администрация не несет ответственности за их содержание. Просьба не заливать файлы, защищенные авторскими правами, а также файлы нелегального содержания!

Искали программы, игры, дополнения, музыка mp3, аниме, аудио книги, журналы? Добро пожаловать на свободный торрент трекер Torrents, у нас можно скачать бесплатно, без смс и регистрации и прочих ограничений лучшие, отборные сборки программ, игр. Скачать торрентом не составит труда даже не опытному пользователю. Раздачи ежедневно обновляются, только лучшие и качественные раздачи, подробные описания и скриншоты. Огромная коллекция программ для работы со звуком, графикой, дизайном, а так же множество плагинов и инструментов к ним с подробной инструкцией и рекомендациями. Прошивки для навигаторов, карты. Разнообразные игры, для Windows, Linux. В коллекцие есть и старые игры любых жанров, Rpg, Action, Shooter, strategy Множество дополнений, модификаций, сценариев для популярных игр в жанре экш, рпг, гонки, стратегии, логические игры. Множество аддонов и сценариев для Microsoft Flight Simulator Большая коллекция книг, учебников. Если нет возможности купить печатное издание - смело скачивайте цифровую версию книги или, быть может, журнала. Не любите читать - можно загрузить бесплатно аудикнигу. Для веб дизайнеров и программистов так же найдется множество специализированного софта, таких как: редакторы с подсветкой, среды программирования, компоненты, системы управления базами данных, разнообразные скрипты и шаблоны. Не так давно у нас появился материал для автолюбителей и владельцев мото - оригинальные и неоригинальные каталоги запчастей, книги и журналы по ремонту и обслуживанию, видеоуроки, статьи по чип тюнингу, прошивкам. Процедура получения контента элементарная, достаточно просто скачать торрент файл и добавить его в загрузку в вашем торрент клиенте. Если у вас нет специального торрент клиента, вы можете его скачать у нас.