Роллс Ройс, Я люблю тебя / Rolls, Rolls, I Love You / Jut zai yau che (Ланг Чианг / Lung Chiang) [1982, Гонконг, боевик, комедия, DVDRip] VO (Хоррор Мейкер) 

Цитировать
Роллс Ройс, Я люблю тебя / Rolls, Rolls, I Love You / Jut zai yau che
Страна: Гонконг
Студия: Shaw Brothers
Жанр: боевик, комедия
Год выпуска: 1982
Продолжительность: 01:30:38
Перевод: Одноголосый закадровый [Хоррор Мейкер]
Субтитры: нет
Оригинальная аудиодорожка: китайская
Режиссер: Ланг Чианг / Lung Chiang
В ролях:
1. Чэнь Куаньтай / Chen Kuantai (в роли Mr. Cui Tung-Sing)
2. Те-Ло Мэй / Te-Lo Mai / в титрах: Robert Mak (в роли Ah Dan)
3. Чинь Сиу-Хо / Chin Siu-Ho (в роли Ho Guan)
4. Юк Лау / Yuk Lau (в роли Юк Лау)
5. Цзинь Цзян / Jin Jiang (в роли Cuttlefish)
6. Квок Куэнь Чан / Kwok Kuen Chan
7. Тат-Ва Чо / Tat-Wah Cho (в роли Farmer)
8. Хо Кай Ло / Ho Kai Law
9. Пак-Квон Хо / Pak-Kwong Ho
10. Tung-Kua Ai
11. Хань Чианг / Han Chiang
12. Ят Фэн Лау / Yat Fan Lau
13. Хак Шун Люн / Hak Shun Leung
14. Hsin Liang
15. Анджелина Ло / Angelina Lo
16. Гва-Пау Саи / Gwa-Pau Sai
17. Сиу-Минг То / Siu-Ming To
18. Тиен Тсаи Вэй / Tien Tsai Wei
19. Кэм Бо Вонг / Kam Bo Wong
20. Сиу Минг Вонг / Siu Ming Wong
21. Бун Чай Ят / Boon Chai Yat-Описание: Четверка юных голодранцев заключает пари с миллиардером, что они сумеют угнать его белый Роллс-Ройс. Согласно условиям пари, он не имеет права ставить машину в гараж, а они - применять насилие, поэтому бедолагам приходится разыгрывать спектакли один живописнее другого, чтобы завладеть роскошным автомобилем.
Доп. информация: Rip by kohora
исходник DVD Роллс Ройс, Я люблю тебя DVD5 VO (Хоррор Мейкер)- -
Качество видео: DVDRip
Формат видео: AVI
Видео: XVID 720 x 396 (16:9), 1793 кбит/сек, 29.970 fps
Аудио: Русский - AC3 192 Кбит/сек 2 канала (L R), 48,0 КГц
Аудио 2: Китайский - AC3 192 Кбит/сек 2 канала (L R), 48,0 КГц

Скриншот c названием фильма

Скриншоты

Альтернативный Постер

MI

Общее
Полное имя : Роллс Ройс, Я люблю тебя 1982, Гонконг, боевик, комедия by kohora.avi
Формат : AVI
Формат/Информация : Audio Video Interleave
Размер файла : 1,39 Гбайт
Продолжительность : 1 ч. 30 м.
Общий поток : 2195 Кбит/сек
Программа кодирования : VirtualDubModRus 1.5.10.2 (build 2542/release)
Библиотека кодирования : VirtualDubMod build 2542/release
Примечание : Rip by kohora
Видео
Идентификатор : 0
Формат : MPEG-4 Visual
Профиль формата : Advanced Simple@L5
Параметр BVOP формата : 2
Параметр QPel формата : Нет
Параметр GMC формата : Без точки перехода
Параметр матрицы формата : Выборочная
Идентификатор кодека : XVID
Идентификатор кодека/Подсказка : XviD
Продолжительность : 1 ч. 30 м.
Битрейт : 1793 Кбит/сек
Ширина : 720 пикселей
Высота : 396 пикселей
Соотношение сторон : 16:9
Частота кадров : 29,970 (30000/1001) кадров/сек
Цветовое пространство : YUV
Субдискретизация насыщенности : 4:2:0
Битовая глубина : 8 бит
Тип развёртки : Прогрессивная
Метод сжатия : С потерями
Бит/(Пиксели*Кадры) : 0.210
Размер потока : 1,14 Гбайт (82%)
Библиотека кодирования : XviD 73
Аудио #1
Идентификатор : 1
Формат : AC-3
Формат/Информация : Audio Coding 3
Параметр Endianness формата : Big
Идентификатор кодека : 2000
Продолжительность : 1 ч. 30 м.
Вид битрейта : Постоянный
Битрейт : 192 Кбит/сек
Каналы : 2 канала
Расположение каналов : Front: L R
Частота : 48,0 КГц
Частота кадров : 31,250 кадров/сек (1536 SPF)
Битовая глубина : 16 бит
Метод сжатия : С потерями
Размер потока : 124 Мбайт (9%)
Выравнивание : Соединение по промежуткам
Продолжительность промежутка : 33 мс. (1,00 видеокадр)
Время предзагрузки промежутка : 512 мс.
Заголовок : Russian
ServiceKind/String : Complete Main
Аудио #2
Идентификатор : 2
Формат : AC-3
Формат/Информация : Audio Coding 3
Параметр Endianness формата : Big
Идентификатор кодека : 2000
Продолжительность : 1 ч. 30 м.
Вид битрейта : Постоянный
Битрейт : 192 Кбит/сек
Каналы : 2 канала
Расположение каналов : Front: L R
Частота : 48,0 КГц
Частота кадров : 31,250 кадров/сек (1536 SPF)
Битовая глубина : 16 бит
Метод сжатия : С потерями
Размер потока : 124 Мбайт (9%)
Выравнивание : Соединение по промежуткам
Продолжительность промежутка : 33 мс. (1,00 видеокадр)
Время предзагрузки промежутка : 512 мс.
Заголовок : Chinese
ServiceKind/String : Complete Main
Ссылки на мои файлы Раздача
Вы не можете начинать темы
Вы не можете отвечать на сообщения
Вы не можете редактировать свои сообщения
Вы не можете удалять свои сообщения
Вы не можете голосовать в опросах
Вы не можете прикреплять файлы к сообщениям
Вы можете скачивать файлы
!ВНИМАНИЕ!

Сайт не предоставляет электронные версии произведений, а занимается лишь коллекционированием и каталогизацией ссылок, присылаемых и публикуемых на форуме нашими читателями. Если вы являетесь правообладателем какого-либо представленного материала и не желаете, чтобы ссылка на него находилась в нашем каталоге, свяжитесь с нами, и мы незамедлительно удалим ее. Файлы для обмена на трекере предоставлены пользователями сайта, и администрация не несет ответственности за их содержание. Просьба не заливать файлы, защищенные авторскими правами, а также файлы нелегального содержания!

Искали программы, игры, дополнения, музыка mp3, аниме, аудио книги, журналы? Добро пожаловать на свободный торрент трекер Torrents, у нас можно скачать бесплатно, без смс и регистрации и прочих ограничений лучшие, отборные сборки программ, игр. Скачать торрентом не составит труда даже не опытному пользователю. Раздачи ежедневно обновляются, только лучшие и качественные раздачи, подробные описания и скриншоты. Огромная коллекция программ для работы со звуком, графикой, дизайном, а так же множество плагинов и инструментов к ним с подробной инструкцией и рекомендациями. Прошивки для навигаторов, карты. Разнообразные игры, для Windows, Linux. В коллекцие есть и старые игры любых жанров, Rpg, Action, Shooter, strategy Множество дополнений, модификаций, сценариев для популярных игр в жанре экш, рпг, гонки, стратегии, логические игры. Множество аддонов и сценариев для Microsoft Flight Simulator Большая коллекция книг, учебников. Если нет возможности купить печатное издание - смело скачивайте цифровую версию книги или, быть может, журнала. Не любите читать - можно загрузить бесплатно аудикнигу. Для веб дизайнеров и программистов так же найдется множество специализированного софта, таких как: редакторы с подсветкой, среды программирования, компоненты, системы управления базами данных, разнообразные скрипты и шаблоны. Не так давно у нас появился материал для автолюбителей и владельцев мото - оригинальные и неоригинальные каталоги запчастей, книги и журналы по ремонту и обслуживанию, видеоуроки, статьи по чип тюнингу, прошивкам. Процедура получения контента элементарная, достаточно просто скачать торрент файл и добавить его в загрузку в вашем торрент клиенте. Если у вас нет специального торрент клиента, вы можете его скачать у нас.