А что потом? / Et apres? (Марк Ори / Marc Ory) [2016, Франция, комедия, черный юмор, короткий метр, DVB] Original (Fre) + Sub (Rus, Eng, Fre, Deu) 

Цитировать
А что потом?
Et apres?- Страна: Франция
Жанр: комедия, черный юмор, короткий метр
Год выпуска: 2016
Продолжительность: 00:12:21
Перевод: Субтитры (перевод Е.Шмагринской, Éclair Media)
Субтитры: русские, английские, французские, немецкие, нидерландские
Оригинальная аудиодорожка: французский
Режиссер: Марк Ори / Marc OryВ ролях: Марион Дюкам / Marion Ducamp (La femme), Марк Ори / Marc Ory (L'homme), Жюльен Гибер / Julien Guibert (Dylan)
Описание: Мужчина в 3D-очках и женщина в лыжном комбинезоне просыпаются у подножия дерева в середине леса. К ним присоединяется некто Дилан и сообщает им плохую новость: они мертвы.
Доп. информация: Hot Bird (13.0°E) TV5MONDE Europe DVB-S
Награды: приз жюри Sundance Channel Short Film Festival 2016; приз за лучший сценарий Cancer Sucks Film Festival Londres 2016; приз за лучшую короткометражку Brownsville International FIlm Festival 2016.

Качество видео: DVB
Формат видео: MKV
Видео: MPEG Video 2, 720x576@1024x576 (16:9), 25 fps, ~2680 kbps avg, 0.259 bit/pixel
Аудио: MPEG Audio 2, 2 ch, 48 kHz, 192 kbps - французский
Формат субтитров: softsub (SRT)

Пример субтитров

1
00:00:24,268 --> 00:00:27,268
А ЧТО ПОТОМ?
2
00:02:03,722 --> 00:02:06,722
Извините за опоздание.
Я просто как раз...
3
00:02:08,035 --> 00:02:10,037
Да какая разница.
4
00:02:10,037 --> 00:02:13,037
Позвольте представиться.
Я Дилан. Я призван указать вам путь.
5
00:02:16,234 --> 00:02:17,876
Выглядите
вы неважно.
6
00:02:17,876 --> 00:02:19,838
Вид у вас совершенно...
7
00:02:19,838 --> 00:02:22,838
Но когда к этому не готов,
это всегда...
8
00:02:23,870 --> 00:02:26,870
Поэтому скажу вам сразу:
вы умерли.
9
00:02:28,603 --> 00:02:30,323
Простите?
10
00:02:30,323 --> 00:02:32,042
То есть как это?
11
00:02:32,042 --> 00:02:34,873
Скончались,
скопытились, окочурились.
12
00:02:34,873 --> 00:02:37,873
В общем, вы больше не являетесь
частью мира живых.
13
00:02:38,363 --> 00:02:41,363
Что за бред?
14
00:02:41,871 --> 00:02:44,871
Как же так...
15
00:03:10,084 --> 00:03:12,591
Ну что, теперь верите?
Продолжим?
16
00:03:12,591 --> 00:03:14,722
Нет, вы что,
совсем рехнулись?
17
00:03:14,722 --> 00:03:17,722
Только так можно заставить
вас быстро понять.
18
00:03:18,035 --> 00:03:19,195
Понять что?
19
00:03:19,195 --> 00:03:21,355
Ну все,
пошутили и хватит.
20
00:03:21,355 --> 00:03:22,799
Вы умерли,
вот и все.

MediaInfo

General
Unique ID : 192908781137953527945225918203231184390 (0x9120E13B6AC659B1BC7F4F3CA067A606)
Complete name : [apreder]MM_Et_apres(2016)DVB.mkv
Format : Matroska
Format version : Version 2
File size : 259 MiB
Duration : 12 min 21 s
Overall bit rate : 2 931 kb/s
Movie name : Et aprиs?
Released date : 2016-01-16
Encoded date : UTC 2017-03-19 13:07:04
Writing application : mkvmerge v9.9.0 ('Pick Up') 64bit
Writing library : libebml v1.3.4 + libmatroska v1.4.5
Cover : Yes
Attachments : cover.jpg / small_cover.jpg
ACTOR : Julien Guibert, Marc Ory, Marion Ducamp
DIRECTOR : Marc Ory
GENRE : Short, Comedy
IMDB : tt5356192
KEYWORDS : rutracker.org
LAW_RATING : 16+
Video
ID : 1
Format : MPEG Video
Format version : Version 2
Format profile : Main@Main
Format settings, BVOP : Yes
Format settings, Matrix : Custom
Format settings, GOP : M=4, N=12
Format settings, picture structure : Frame
Codec ID : V_MPEG2
Codec ID/Info : MPEG 1 or 2 Video
Duration : 12 min 21 s
Bit rate mode : Constant
Bit rate : 2 680 kb/s
Maximum bit rate : 3 200 kb/s
Width : 720 pixels
Height : 576 pixels
Display aspect ratio : 16:9
Frame rate mode : Constant
Frame rate : 25.000 FPS
Standard : PAL
Color space : YUV
Chroma subsampling : 4:2:0
Bit depth : 8 bits
Scan type : Interlaced
Scan order : Top Field First
Compression mode : Lossy
Bits/(Pixel*Frame) : 0.259
Stream size : 237 MiB (91%)
Default : Yes
Forced : No
Audio
ID : 2
Format : MPEG Audio
Format version : Version 1
Format profile : Layer 2
Mode : Joint stereo
Mode extension : Intensity Stereo + MS Stereo
Codec ID : A_MPEG/L2
Codec ID/Hint : MP2
Duration : 12 min 21 s
Bit rate mode : Constant
Bit rate : 192 kb/s
Channel(s) : 2 channels
Sampling rate : 48.0 kHz
Compression mode : Lossy
Stream size : 17.0 MiB (7%)
Language : French
Default : Yes
Forced : No
Text #1
ID : 3
Format : UTF-8
Codec ID : S_TEXT/UTF8
Codec ID/Info : UTF-8 Plain Text
Language : Russian
Default : No
Forced : No
Text #2
ID : 4
Format : UTF-8
Codec ID : S_TEXT/UTF8
Codec ID/Info : UTF-8 Plain Text
Language : English
Default : No
Forced : No
Text #3
ID : 5
Format : UTF-8
Codec ID : S_TEXT/UTF8
Codec ID/Info : UTF-8 Plain Text
Language : French
Default : No
Forced : No
Text #4
ID : 6
Format : UTF-8
Codec ID : S_TEXT/UTF8
Codec ID/Info : UTF-8 Plain Text
Language : German
Default : No
Forced : No
Text #5
ID : 7
Format : UTF-8
Codec ID : S_TEXT/UTF8
Codec ID/Info : UTF-8 Plain Text
Language : Dutch
Default : No
Forced : No

Скриншот c названием фильма

Скриншоты

Резервные скриншоты

- [3'567]
Вы не можете начинать темы
Вы не можете отвечать на сообщения
Вы не можете редактировать свои сообщения
Вы не можете удалять свои сообщения
Вы не можете голосовать в опросах
Вы не можете прикреплять файлы к сообщениям
Вы можете скачивать файлы
!ВНИМАНИЕ!

Сайт не предоставляет электронные версии произведений, а занимается лишь коллекционированием и каталогизацией ссылок, присылаемых и публикуемых на форуме нашими читателями. Если вы являетесь правообладателем какого-либо представленного материала и не желаете, чтобы ссылка на него находилась в нашем каталоге, свяжитесь с нами, и мы незамедлительно удалим ее. Файлы для обмена на трекере предоставлены пользователями сайта, и администрация не несет ответственности за их содержание. Просьба не заливать файлы, защищенные авторскими правами, а также файлы нелегального содержания!

Искали программы, игры, дополнения, музыка mp3, аниме, аудио книги, журналы? Добро пожаловать на свободный торрент трекер Torrents, у нас можно скачать бесплатно, без смс и регистрации и прочих ограничений лучшие, отборные сборки программ, игр. Скачать торрентом не составит труда даже не опытному пользователю. Раздачи ежедневно обновляются, только лучшие и качественные раздачи, подробные описания и скриншоты. Огромная коллекция программ для работы со звуком, графикой, дизайном, а так же множество плагинов и инструментов к ним с подробной инструкцией и рекомендациями. Прошивки для навигаторов, карты. Разнообразные игры, для Windows, Linux. В коллекцие есть и старые игры любых жанров, Rpg, Action, Shooter, strategy Множество дополнений, модификаций, сценариев для популярных игр в жанре экш, рпг, гонки, стратегии, логические игры. Множество аддонов и сценариев для Microsoft Flight Simulator Большая коллекция книг, учебников. Если нет возможности купить печатное издание - смело скачивайте цифровую версию книги или, быть может, журнала. Не любите читать - можно загрузить бесплатно аудикнигу. Для веб дизайнеров и программистов так же найдется множество специализированного софта, таких как: редакторы с подсветкой, среды программирования, компоненты, системы управления базами данных, разнообразные скрипты и шаблоны. Не так давно у нас появился материал для автолюбителей и владельцев мото - оригинальные и неоригинальные каталоги запчастей, книги и журналы по ремонту и обслуживанию, видеоуроки, статьи по чип тюнингу, прошивкам. Процедура получения контента элементарная, достаточно просто скачать торрент файл и добавить его в загрузку в вашем торрент клиенте. Если у вас нет специального торрент клиента, вы можете его скачать у нас.