Медведь / Bear (Нэш Эдгертон / Nash Edgerton) [2011, Австралия, короткометражка, драма, комедия, WEB-DL] MVO Black Street Records + Sub Rus 

Цитировать
Медведь / Bear
Страна: Австралия
Жанр: короткометражка, драма, комедия
Год выпуска: 2011
Продолжительность: 00:10:50
Перевод: Любительский (многоголосый закадровый) Black Street Records
Субтитры: русские
Оригинальная аудиодорожка: нет
Озвучено - Black Street Records
Перевод - perevodman
Озвучили - Оля Норкс, Василий Сиприков, Евгений Фадеев а.к.а. Снеговик
Работа со Звуком - Евгений "Fat Chop"

Режиссер: Нэш Эдгертон / Nash Edgerton
В ролях: Нэш Эдгертон, Тереза Палмер, Уорвик Торнтон
Описание: Мы продолжаем следить за приключениями Джека, который постоянно заходит слишком далеко. На этот раз он организовал сюрприз на День рождения своей подружки с непреднамеренным исходом.
ПРЕДЫСТОРИЯ
Сэмпл: http://sendfile.su/1031802
Качество видео: WEB-DL
Формат видео: MP4
Видео: avc, 1920x1080, 16x9, 2 147 Kbps, 25.000 fps
Аудио: mp3, 48.0 KHz, 320 Kbps, 2ch
Формат субтитров: softsub (SRT)
Доп. информация о субтитрах: perevodman

MediaInfo

General
Unique ID : 237923503179972406034994151670828981530 (0xB2FE66617873CD7F955E824FF9A75D1A)
Complete name : R:\ФИЛЬМЫ\СВОЁ\КОРОТКОМЕТРАЖКИ\Bear by Nash Edgerton - Медведь (Black Street Records).mkv
Format : Matroska
Format version : Version 2
File size : 195 MiB
Duration : 10mn 50s
Overall bit rate : 2 517 Kbps
Encoded date : UTC 2014-10-06 14:55:18
Writing application : mkvmerge v4.0.0 ('The Stars were mine') сборка от Jun 6 2010 16:18:42
Writing library : libebml v1.0.0 + libmatroska v1.0.0
Video
ID : 1
Format : AVC
Format/Info : Advanced Video Codec
Format profile : High@L4.0
Format settings, CABAC : Yes
Format settings, ReFrames : 3 frames
Codec ID : V_MPEG4/ISO/AVC
Duration : 10mn 50s
Bit rate : 2 147 Kbps
Width : 1 920 pixels
Height : 1 080 pixels
Display aspect ratio : 16:9
Frame rate mode : Constant
Frame rate : 25.000 fps
Color space : YUV
Chroma subsampling : 4:2:0
Bit depth : 8 bits
Scan type : Progressive
Bits/(Pixel*Frame) : 0.041
Stream size : 166 MiB (85%)
Default : Yes
Forced : No
Audio
ID : 2
Format : MPEG Audio
Format version : Version 1
Format profile : Layer 3
Codec ID : A_MPEG/L3
Codec ID/Hint : MP3
Duration : 10mn 50s
Bit rate mode : Constant
Bit rate : 320 Kbps
Channel(s) : 2 channels
Sampling rate : 48.0 KHz
Compression mode : Lossy
Stream size : 24.8 MiB (13%)
Title : Black Street Records
Language : Russian
Default : Yes
Forced : No
Text
ID : 4
Format : UTF-8
Codec ID : S_TEXT/UTF8
Codec ID/Info : UTF-8 Plain Text
Language : Russian
Default : Yes
Forced : No

Скриншот c названием фильма

Скриншоты

Вы не можете начинать темы
Вы не можете отвечать на сообщения
Вы не можете редактировать свои сообщения
Вы не можете удалять свои сообщения
Вы не можете голосовать в опросах
Вы не можете прикреплять файлы к сообщениям
Вы можете скачивать файлы
!ВНИМАНИЕ!

Сайт не предоставляет электронные версии произведений, а занимается лишь коллекционированием и каталогизацией ссылок, присылаемых и публикуемых на форуме нашими читателями. Если вы являетесь правообладателем какого-либо представленного материала и не желаете, чтобы ссылка на него находилась в нашем каталоге, свяжитесь с нами, и мы незамедлительно удалим ее. Файлы для обмена на трекере предоставлены пользователями сайта, и администрация не несет ответственности за их содержание. Просьба не заливать файлы, защищенные авторскими правами, а также файлы нелегального содержания!

Искали программы, игры, дополнения, музыка mp3, аниме, аудио книги, журналы? Добро пожаловать на свободный торрент трекер Torrents, у нас можно скачать бесплатно, без смс и регистрации и прочих ограничений лучшие, отборные сборки программ, игр. Скачать торрентом не составит труда даже не опытному пользователю. Раздачи ежедневно обновляются, только лучшие и качественные раздачи, подробные описания и скриншоты. Огромная коллекция программ для работы со звуком, графикой, дизайном, а так же множество плагинов и инструментов к ним с подробной инструкцией и рекомендациями. Прошивки для навигаторов, карты. Разнообразные игры, для Windows, Linux. В коллекцие есть и старые игры любых жанров, Rpg, Action, Shooter, strategy Множество дополнений, модификаций, сценариев для популярных игр в жанре экш, рпг, гонки, стратегии, логические игры. Множество аддонов и сценариев для Microsoft Flight Simulator Большая коллекция книг, учебников. Если нет возможности купить печатное издание - смело скачивайте цифровую версию книги или, быть может, журнала. Не любите читать - можно загрузить бесплатно аудикнигу. Для веб дизайнеров и программистов так же найдется множество специализированного софта, таких как: редакторы с подсветкой, среды программирования, компоненты, системы управления базами данных, разнообразные скрипты и шаблоны. Не так давно у нас появился материал для автолюбителей и владельцев мото - оригинальные и неоригинальные каталоги запчастей, книги и журналы по ремонту и обслуживанию, видеоуроки, статьи по чип тюнингу, прошивкам. Процедура получения контента элементарная, достаточно просто скачать торрент файл и добавить его в загрузку в вашем торрент клиенте. Если у вас нет специального торрент клиента, вы можете его скачать у нас.