Изменники / Предатели Шаолиня / Traitorous / Shaolin Traitorous / Da tai jian (Санг Тинг Мей / Ting Mei Sung) [1976, Тайвань, боевые искусства, VHSRip] VO (Shaman) 

Цитировать
Изменники / Предатели Шаолиня / Traitorous / Shaolin Traitorous / Da tai jian
Страна: Тайвань
Жанр: боевые искусства
Год выпуска: 1976
Продолжительность: 01:28:37
Перевод: Одноголосый закадровый Shaman
Субтитры: Китайские / Английские (встроенные)
Режиссер: Санг Тинг Мей / Ting Mei Sung
В ролях: Поли Шан Куан, Картер Вонг, Саммо Хунг, Хау Пак, Вонг Фей
Описание: Трое высокопоставленных злодеев убивают ссыльного генерала и его семью, но младшему сыну генерала удаётся выжить. Он клянется отомстить злодеям и мысль о мести поддерживает его в испытаниях. А их предстоит пройти ему немало, ибо он навострил лыжи не куда-нибудь, а в самый что ни на есть монастырь Шаолинь. Благодаря своему упорству он попадает туда и в постоянных тренировках достигает видимо не хилого мастерства. Ну, как бы там ни было, юный мститель отправляется вершить справедливый суд. Против него, помимо злодеев выступает дочь главаря, которая тоже неплохо владеет кунг-фу и на этой почве видимо у них сразу же возникает симпатия, хотя молодой боец и не подозревает что сражается с женщиной. В общем, самый главный козырь защиты подлецов - это императорские охранники, которые полностью подчиняются гнусному Тин Эр Кану и его первому помощнику, который управляет их боевыми действиями с помощью барабана. Нашему герою предстоит любой ценой прорвать защиту и добраться до главного негодяя...
Сэмпл: http://multi-up.com/1163959
Качество видео: VHSRip (Исходник DVD-Video)
Формат видео: AVI
Видео: XviD 73, 592x272, (2,02:1), 23,976 fps, 2018 Кбит/с, 8 бит
Аудио: Русский (АС3, 2 ch (Front: L R), 48,0 KHz, 192 Kbps)

MediaInfo

Общее
Полное имя : F:\Видеофильмы\В и д е о\Изменники (боевые искусства 1976 год).avi
Формат : AVI
Формат/Информация : Audio Video Interleave
Размер файла : 1,37 Гбайт
Продолжительность : 1 ч. 28 м.
Общий поток : 2220 Кбит/сек
Программа кодирования : VirtualDubMod 1.5.10.2 (build 2540/release)
Библиотека кодирования : VirtualDubMod build 2540/release
Видео
Идентификатор : 0
Формат : MPEG-4 Visual
Профиль формата : Advanced Simple@L5
Параметр BVOP формата : 2
Параметр QPel формата : Нет
Параметр GMC формата : Без точки перехода
Параметр матрицы формата : Выборочная
Идентификатор кодека : XVID
Идентификатор кодека/Подсказка : XviD
Продолжительность : 1 ч. 28 м.
Битрейт : 2018 Кбит/сек
Ширина : 592 пикселя
Высота : 272 пикселя
Соотношение сторон : 2,2:1
Частота кадров : 23,976 (24000/1001) кадра/сек
Цветовое пространство : YUV
Субдискретизация насыщенности : 4:2:0
Битовая глубина : 8 бит
Тип развёртки : Прогрессивная
Метод сжатия : С потерями
Бит/(Пиксели*Кадры) : 0.523
Размер потока : 1,25 Гбайт (91%)
Библиотека кодирования : XviD 73
Аудио
Идентификатор : 1
Формат : AC-3
Формат/Информация : Audio Coding 3
Расширение режима : CM (complete main)
Параметр Endianness формата : Big
Идентификатор кодека : 2000
Продолжительность : 1 ч. 28 м.
Вид битрейта : Постоянный
Битрейт : 192 Кбит/сек
Каналы : 2 канала
Расположение каналов : Front: L R
Частота : 48,0 КГц
Частота кадров : 31,250 кадров/сек (1536 spf)
Метод сжатия : С потерями
Размер потока : 122 Мбайт (9%)
Выравнивание : Разделение по промежуткам
Продолжительность промежутка : 42 мс. (1,00 видеокадр)
Время предзагрузки промежутка : 500 мс.

Скриншот c названием фильма

Скриншоты

Сравнениеhttp://rutracker.org/forum/viewtopic.php?t=3921446 http://screenshotcomparison.com/comparison/114056
Вы не можете начинать темы
Вы не можете отвечать на сообщения
Вы не можете редактировать свои сообщения
Вы не можете удалять свои сообщения
Вы не можете голосовать в опросах
Вы не можете прикреплять файлы к сообщениям
Вы можете скачивать файлы
!ВНИМАНИЕ!

Сайт не предоставляет электронные версии произведений, а занимается лишь коллекционированием и каталогизацией ссылок, присылаемых и публикуемых на форуме нашими читателями. Если вы являетесь правообладателем какого-либо представленного материала и не желаете, чтобы ссылка на него находилась в нашем каталоге, свяжитесь с нами, и мы незамедлительно удалим ее. Файлы для обмена на трекере предоставлены пользователями сайта, и администрация не несет ответственности за их содержание. Просьба не заливать файлы, защищенные авторскими правами, а также файлы нелегального содержания!

Искали программы, игры, дополнения, музыка mp3, аниме, аудио книги, журналы? Добро пожаловать на свободный торрент трекер Torrents, у нас можно скачать бесплатно, без смс и регистрации и прочих ограничений лучшие, отборные сборки программ, игр. Скачать торрентом не составит труда даже не опытному пользователю. Раздачи ежедневно обновляются, только лучшие и качественные раздачи, подробные описания и скриншоты. Огромная коллекция программ для работы со звуком, графикой, дизайном, а так же множество плагинов и инструментов к ним с подробной инструкцией и рекомендациями. Прошивки для навигаторов, карты. Разнообразные игры, для Windows, Linux. В коллекцие есть и старые игры любых жанров, Rpg, Action, Shooter, strategy Множество дополнений, модификаций, сценариев для популярных игр в жанре экш, рпг, гонки, стратегии, логические игры. Множество аддонов и сценариев для Microsoft Flight Simulator Большая коллекция книг, учебников. Если нет возможности купить печатное издание - смело скачивайте цифровую версию книги или, быть может, журнала. Не любите читать - можно загрузить бесплатно аудикнигу. Для веб дизайнеров и программистов так же найдется множество специализированного софта, таких как: редакторы с подсветкой, среды программирования, компоненты, системы управления базами данных, разнообразные скрипты и шаблоны. Не так давно у нас появился материал для автолюбителей и владельцев мото - оригинальные и неоригинальные каталоги запчастей, книги и журналы по ремонту и обслуживанию, видеоуроки, статьи по чип тюнингу, прошивкам. Процедура получения контента элементарная, достаточно просто скачать торрент файл и добавить его в загрузку в вашем торрент клиенте. Если у вас нет специального торрент клиента, вы можете его скачать у нас.