Когти Дракона / Dragon\'s Claws / Wu zhao shi ba fan (Джозеф Куо / Joseph Kuo) [1979, Гонконг, боевые искусства, DVDRip] AVO (Сергей Кузнецов) 

Цитировать
Когти Дракона / Dragon's Claws / Wu zhao shi ba fan
Страна: Гонконг
Жанр: боевые искусства
Год выпуска: 1979
Продолжительность: 01:31:08
Перевод: Авторский (одноголосый закадровый) Сергей Кузнецов
Субтитры: нет
Режиссер: Джозеф Куо / Joseph Kuo
В ролях: Лау Га-Янг, Хванг Джан-Ли, Пак Ша-Лак, Хон Квок-Чой, Жу Тит-Во, Чан Лау, Йен Кью...
Описание: Лунг Хса, единственный сын мастера Ю Янг-Нина, предводителя клана Кулака Дракона, нагл, ленив, считает себя крутым бойцом, вдобавок ко всему боится жаб. Сам мастер, вроде бы неплохой человек, но, как впоследствии выясняется, получил место предводителя клана нетрадиционным методом. Он просто усыпил и изнасиловал единственную дочь старого главы клана. После чего, тот вынужден был отдать её ему в жены, дабы избежать позора, и передал управление кланом, а сам удалился в изгнание. Став новым предводителем Ю Янг-Нин не раз пытался добиться расположения своей жены. Во время одной из таких настойчивых попыток, та не выдержала и ударила его фирменным ударом клана - "Когти дракона". После этого удара он заболел тяжелой и мучительной болезнью, приступы которой случались каждые три года. Излечить болезнь, без старого главы клана было невозможно, только он знал секрет лечения. Так и промучился мастер Ю Янг-Нин, с болезнью, но без женской ласки 18 лет. Потому и сын у него был единственный. В это время, в школе клана появляется Линг Ко Фенг, еще один ученик старого мастера. Он был влюблен в его дочь и, не без оснований, рассчитывал стать главой клана, но, после произошедших событий, ушел из школы и подался в Манчжурию. Это, по тем временам, считалось предательством. По правилам клана, Линг Ко Фенг вызывает Ю Янг-Нина на поединок, за место главы клана..
Сэмпл: http://multi-up.com/1163475
Качество видео: DVDRip (Исходник DVD-Video)
Формат видео: AVI
Видео: XviD 73, 688x304, (2,25:1), 23,976 fps, 1971 Кбит/с, 8 бит
Аудио: Русский (АС3, 2 ch (Front: L R), 48,0 KHz, 192 Kbps)

MediaInfo

Общее
Полное имя : F:\Видеофильмы\В и д е о\Когти Дракона (боевые искусства 1979 год).avi
Формат : AVI
Формат/Информация : Audio Video Interleave
Размер файла : 1,38 Гбайт
Продолжительность : 1 ч. 31 м.
Общий поток : 2172 Кбит/сек
Программа кодирования : VirtualDubMod 1.5.10.3 | www.virtualdub-fr.org || (build 2550/release)
Библиотека кодирования : VirtualDubMod build 2550/release
Видео
Идентификатор : 0
Формат : MPEG-4 Visual
Профиль формата : Advanced Simple@L5
Параметр BVOP формата : 2
Параметр QPel формата : Нет
Параметр GMC формата : Без точки перехода
Параметр матрицы формата : Выборочная
Идентификатор кодека : XVID
Идентификатор кодека/Подсказка : XviD
Продолжительность : 1 ч. 31 м.
Битрейт : 1971 Кбит/сек
Ширина : 688 пикселей
Высота : 304 пикселя
Соотношение сторон : 2,25:1
Частота кадров : 23,976 (24000/1001) кадра/сек
Цветовое пространство : YUV
Субдискретизация насыщенности : 4:2:0
Битовая глубина : 8 бит
Тип развёртки : Прогрессивная
Метод сжатия : С потерями
Бит/(Пиксели*Кадры) : 0.393
Размер потока : 1,25 Гбайт (91%)
Библиотека кодирования : XviD 73
Аудио
Идентификатор : 1
Формат : AC-3
Формат/Информация : Audio Coding 3
Расширение режима : CM (complete main)
Параметр Endianness формата : Big
Идентификатор кодека : 2000
Продолжительность : 1 ч. 31 м.
Вид битрейта : Постоянный
Битрейт : 192 Кбит/сек
Каналы : 2 канала
Расположение каналов : Front: L R
Частота : 48,0 КГц
Частота кадров : 31,250 кадров/сек (1536 spf)
Метод сжатия : С потерями
Размер потока : 125 Мбайт (9%)
Выравнивание : Разделение по промежуткам
Продолжительность промежутка : 42 мс. (1,00 видеокадр)
Время предзагрузки промежутка : 500 мс.

Скриншот c названием фильма

Скриншоты

Вы не можете начинать темы
Вы не можете отвечать на сообщения
Вы не можете редактировать свои сообщения
Вы не можете удалять свои сообщения
Вы не можете голосовать в опросах
Вы не можете прикреплять файлы к сообщениям
Вы можете скачивать файлы
!ВНИМАНИЕ!

Сайт не предоставляет электронные версии произведений, а занимается лишь коллекционированием и каталогизацией ссылок, присылаемых и публикуемых на форуме нашими читателями. Если вы являетесь правообладателем какого-либо представленного материала и не желаете, чтобы ссылка на него находилась в нашем каталоге, свяжитесь с нами, и мы незамедлительно удалим ее. Файлы для обмена на трекере предоставлены пользователями сайта, и администрация не несет ответственности за их содержание. Просьба не заливать файлы, защищенные авторскими правами, а также файлы нелегального содержания!

Искали программы, игры, дополнения, музыка mp3, аниме, аудио книги, журналы? Добро пожаловать на свободный торрент трекер Torrents, у нас можно скачать бесплатно, без смс и регистрации и прочих ограничений лучшие, отборные сборки программ, игр. Скачать торрентом не составит труда даже не опытному пользователю. Раздачи ежедневно обновляются, только лучшие и качественные раздачи, подробные описания и скриншоты. Огромная коллекция программ для работы со звуком, графикой, дизайном, а так же множество плагинов и инструментов к ним с подробной инструкцией и рекомендациями. Прошивки для навигаторов, карты. Разнообразные игры, для Windows, Linux. В коллекцие есть и старые игры любых жанров, Rpg, Action, Shooter, strategy Множество дополнений, модификаций, сценариев для популярных игр в жанре экш, рпг, гонки, стратегии, логические игры. Множество аддонов и сценариев для Microsoft Flight Simulator Большая коллекция книг, учебников. Если нет возможности купить печатное издание - смело скачивайте цифровую версию книги или, быть может, журнала. Не любите читать - можно загрузить бесплатно аудикнигу. Для веб дизайнеров и программистов так же найдется множество специализированного софта, таких как: редакторы с подсветкой, среды программирования, компоненты, системы управления базами данных, разнообразные скрипты и шаблоны. Не так давно у нас появился материал для автолюбителей и владельцев мото - оригинальные и неоригинальные каталоги запчастей, книги и журналы по ремонту и обслуживанию, видеоуроки, статьи по чип тюнингу, прошивкам. Процедура получения контента элементарная, достаточно просто скачать торрент файл и добавить его в загрузку в вашем торрент клиенте. Если у вас нет специального торрент клиента, вы можете его скачать у нас.