Расчлененка / Cheun / Slice (Конгкиат Кхомсири / Kongkiat Khomsiri) [2009, Таиланд, Триллер, криминал, детектив, BDRip] MVO (СВ Студия) + Original Tai + Sub Rus, Eng 

Цитировать
Расчлененка / Cheun / Slice
Страна: Таиланд
Студия: Five Stars Production Company
Жанр: Триллер, криминал, детектив
Год выпуска: 2009
Продолжительность: 01:40:07
Перевод: Профессиональный (многоголосый закадровый) - СВ Студия
Субтитры: Русские, английские (все - внешние)
Оригинальная аудиодорожка: Тайский (внешняя)
Режиссер: Конгкиат Кхомсири / Kongkiat Khomsiri
В ролях: Арак Аморнсупасири, Сонтхая Читмани, Джессика Пасапхан, Чатчай Пленгпанич, Сикарин Полюонг, Артхаран Пулсавад
Описание: Жертвами серийного убийцы становятся совершенно разные люди, полиция не может понять, по какому принципу убийца их отбирает. Убийство всегда совершается максимально жестоким способом, после чего тело жертвы расчленяется и упаковывается в красный чемодан. После того, как очередной жертвой становится сын министра, лейтенанту полиции Чину поставлен жесткий ультиматум: найти убийцу в течение 15 дней. Случайно Чин узнает, что отбывающего срок в тюрьме наемного убийцу по имени Тай мучают ночные кошмары, в центре которых также находится красный чемодан. Сообразив, что такое совпадение не случайно, и что серийный убийца, возможно, друг его детства, Чин вытаскивает Тая из тюрьмы и поручает ему поиск убийцы.
Дополнительная информация:
Автор релиза -
Заказ и выкуп перевода - ylnian & Ко
Источник для рипа - Blu-Ray (FRA) - Slice 2009 1080p FRA Blu-ray AVC DTS-HD MA 5.1
Текст читали - Давид Бродский, Сергей Пономарёв, Алексей Серёгин, Денис Строев, Дмитрий Рыбин, Евгения Тихонова
В переводе присутствует ненормативная лексика! В русских субтитров мат заменён на литературные фразы.
За описание спасибо cybervlad
Релиз без рекламы!


Сэмпл: http://yadi.sk/i/kF0Trs5p3MeSUN
Качество видео: BDRip
Формат видео: AVI
Видео: XviD, 720x400 (16:9), 23.976 fps, 1631 kbps, 0.236 bit/pixel
Аудио 1: Русский АС3, 48000 Гц, 6ch, 448 kbps
Аудио 2: Тайский АС3, 48000 Гц, 6ch, 448 kbps
Формат субтитров: softsub (SRT)

MediaInfo

Общее
Полное имя : D:\Slice.2009.BDRip-ylnian\Slice.2009.BDRip-ylnian.avi
Формат : AVI
Формат/Информация : Audio Video Interleave
Размер файла : 1,46 Гбайт
Продолжительность : 1 ч. 40 м.
Общий поток : 2088 Кбит/сек
Название фильма : Slice - 2009 - BDRip - ylnian
Программа кодирования : VirtualDubMod 1.5.10.2 (build 2540/release)
Библиотека кодирования : VirtualDubMod build 2540/release
Видео
Идентификатор : 0
Формат : MPEG-4 Visual
Профиль формата : Advanced Simple@L5
Параметр BVOP формата : 1
Параметр QPel формата : Нет
Параметр GMC формата : Без точки перехода
Параметр матрицы формата : Default (MPEG)
Идентификатор кодека : XVID
Идентификатор кодека/Подсказка : XviD
Продолжительность : 1 ч. 40 м.
Битрейт : 1631 Кбит/сек
Ширина : 720 пикселей
Высота : 400 пикселей
Соотношение сторон : 16:9
Частота кадров : 23,976 (24000/1001) кадра/сек
Цветовое пространство : YUV
Субдискретизация насыщенности : 4:2:0
Битовая глубина : 8 бит
Тип развёртки : Прогрессивная
Метод сжатия : С потерями
Бит/(Пиксели*Кадры) : 0.236
Размер потока : 1,14 Гбайт (78%)
Библиотека кодирования : XviD 67
Аудио
Идентификатор : 1
Формат : AC-3
Формат/Информация : Audio Coding 3
Параметр Endianness формата : Big
Идентификатор кодека : 2000
Продолжительность : 1 ч. 39 м.
Вид битрейта : Постоянный
Битрейт : 448 Кбит/сек
Каналы : 6 каналов
Расположение каналов : Front: L C R, Side: L R, LFE
Частота : 48,0 КГц
Частота кадров : 31,250 кадров/сек (1536 spf)
Битовая глубина : 16 бит
Метод сжатия : С потерями
Размер потока : 320 Мбайт (21%)
Выравнивание : Разделение по промежуткам
Продолжительность промежутка : 42 мс. (1,00 видеокадр)
Время предзагрузки промежутка : 500 мс.
Заголовок : MVO
ServiceKind/String : Complete Main
Общее
Полное имя : D:\Slice.2009.BDRip-ylnian\Slice.2009.BDRip-ylnian.Rus.srt
Формат : SubRip
Размер файла : 70,2 Кбайт
Текст
Формат : SubRip
Метод сжатия : Без потерь
Общее
Полное имя : D:\Slice.2009.BDRip-ylnian\Slice.2009.BDRip-ylnian_Eng.srt
Формат : SubRip
Размер файла : 56,8 Кбайт
Текст
Формат : SubRip
Метод сжатия : Без потерь
Общее
Полное имя : D:\Slice.2009.BDRip-ylnian\Slice.2009.BDRip-ylnian_Tha.ac3
Формат : AC-3
Формат/Информация : Audio Coding 3
Размер файла : 320 Мбайт
Продолжительность : 1 ч. 39 м.
Режим общего битрейта : Постоянный
Общий поток : 448 Кбит/сек
Аудио
Формат : AC-3
Формат/Информация : Audio Coding 3
Параметр Endianness формата : Big
Продолжительность : 1 ч. 39 м.
Вид битрейта : Постоянный
Битрейт : 448 Кбит/сек
Каналы : 6 каналов
Расположение каналов : Front: L C R, Side: L R, LFE
Частота : 48,0 КГц
Частота кадров : 31,250 кадров/сек (1536 spf)
Битовая глубина : 16 бит
Метод сжатия : С потерями
Размер потока : 320 Мбайт (100%)
ServiceKind/String : Complete Main

Награды

3 wins & 11 nominations - http://www.imdb.com/title/tt1603807/awards?ref_=tt_awd
Вы не можете начинать темы
Вы не можете отвечать на сообщения
Вы не можете редактировать свои сообщения
Вы не можете удалять свои сообщения
Вы не можете голосовать в опросах
Вы не можете прикреплять файлы к сообщениям
Вы можете скачивать файлы
!ВНИМАНИЕ!

Сайт не предоставляет электронные версии произведений, а занимается лишь коллекционированием и каталогизацией ссылок, присылаемых и публикуемых на форуме нашими читателями. Если вы являетесь правообладателем какого-либо представленного материала и не желаете, чтобы ссылка на него находилась в нашем каталоге, свяжитесь с нами, и мы незамедлительно удалим ее. Файлы для обмена на трекере предоставлены пользователями сайта, и администрация не несет ответственности за их содержание. Просьба не заливать файлы, защищенные авторскими правами, а также файлы нелегального содержания!

Искали программы, игры, дополнения, музыка mp3, аниме, аудио книги, журналы? Добро пожаловать на свободный торрент трекер Torrents, у нас можно скачать бесплатно, без смс и регистрации и прочих ограничений лучшие, отборные сборки программ, игр. Скачать торрентом не составит труда даже не опытному пользователю. Раздачи ежедневно обновляются, только лучшие и качественные раздачи, подробные описания и скриншоты. Огромная коллекция программ для работы со звуком, графикой, дизайном, а так же множество плагинов и инструментов к ним с подробной инструкцией и рекомендациями. Прошивки для навигаторов, карты. Разнообразные игры, для Windows, Linux. В коллекцие есть и старые игры любых жанров, Rpg, Action, Shooter, strategy Множество дополнений, модификаций, сценариев для популярных игр в жанре экш, рпг, гонки, стратегии, логические игры. Множество аддонов и сценариев для Microsoft Flight Simulator Большая коллекция книг, учебников. Если нет возможности купить печатное издание - смело скачивайте цифровую версию книги или, быть может, журнала. Не любите читать - можно загрузить бесплатно аудикнигу. Для веб дизайнеров и программистов так же найдется множество специализированного софта, таких как: редакторы с подсветкой, среды программирования, компоненты, системы управления базами данных, разнообразные скрипты и шаблоны. Не так давно у нас появился материал для автолюбителей и владельцев мото - оригинальные и неоригинальные каталоги запчастей, книги и журналы по ремонту и обслуживанию, видеоуроки, статьи по чип тюнингу, прошивкам. Процедура получения контента элементарная, достаточно просто скачать торрент файл и добавить его в загрузку в вашем торрент клиенте. Если у вас нет специального торрент клиента, вы можете его скачать у нас.