Уважай свою жену / Du skal ære din hustru / Master of the house (Карл Теодор Дрейер / Carl Theodor Dreyer)[1925, Дания, Драма, DVD9 (Custom)] Sub Eng, Rus (Dziga Murnau) + Orig Eng / Criterion Collection#706 

Цитировать
Уважай свою жену / Du skal ære din hustru / Master of the house / Criterion Collection#706
Страна:Дания
Студия:Palladium Film.
Жанр:Триллер, Драма
Год выпуска:1925
Продолжительность:01:47:03
Производитель:The Criterion Collection#706
Перевод:Субтитры
Субтитры:Английские, Русские Dziga Murnau, zuck1976
Оригинальная аудиодорожка:Английский
Премьера (мир):5.10.1925
Режиссер:Карл Теодор Дрейер / Carl Theodor Dreyer
В ролях:Йоханнес Мейер, Астрид Холм, Karin Nellemose, Матильда Нилсен, Clara Schonfeld, Йоханнес Нилсен, Петрине Сонн, Aage Hoffman, Byril Harvig, Viggo Lindstrom
Описание:Эта история — о обычной семье, в которой муж, Виктор, своим заработком кормит всю семью, и потому считает, что вправе тиранить своих домочадцев, а любящая его жена, Ида, безропотно сносит его придирки и работает по хозяйству не покладая рук. И эта история могла бы кончиться плохо, если бы в дело не вмешались две предприимчивых пожилых женщины — мама Иды и Медс, когда-то бывшая нянькой Виктору, а ныне время от времени помогающая Иде с домашними делами. Мама Иды убеждает её на время покинуть дом и семью, чтобы как следует отдохнуть, а Медс занимает место хозяйки — и превращает жизнь Виктора в ад…
Доп. информация:Исходник найден в сети.Субтитры Dziga Murnau, zuck1976 взяты из раздачиzuck1976 - http://rutracker.org/forum/viewtopic.php?t=2792948.Огромное Спасибо Всем, без чьей помощи этот релиз не состоялся бы!
Сценарий:Svend Rindom, Карл Теодор ДрейерОператор:George SchneevoigtХудожник:Карл Теодор ДрейерМонтаж:Карл Теодор Дрейер

Рецензия

Софт

PgcDemux 1.2.0.5 -> разделение компонентов диска на файлы.
Subtitle Workshop, MaestroSBT, DVD SubEdit -> (субтитры).
MuxMan DVD authoring Professional -> мультиплексирование и авторинг.
DVDRemake Pro 3.6.4 -> реавторинг DVD.
DVD Shrink 3.2 -> Сэмпл.-- Точка перехода.

Бонусы:(Без перевода)

--New interview with Carl Theodor Dreyer historian Casper Tybjerg
--New visual essay on Dreyer’s innovations by film historian David Bordwell
Меню:Английский, статичное, озвученное. Тип релиза:DVD9 (Custom)
Контейнер:DVD-Video
Видео:NTSC 4:3 (720x480) VBR, 8371 Кбит/сек, 23,976 (24000/1001) кадра/секАудио:Английский:AC3, 2 ch, 48.0 KHz, 384 Кбит/сек / ОригиналФормат субтитров:prerendered (DVD/IDX+SUB)

Dvd Info

Title: Master of the house DVD-9_Custom_Criterion#706
Size: 7.70 Gb ( 8 070 798,00 KBytes ) - DVD-9
Enabled regions: 1, 2, 3, 4, 5, 6, 7, 8
VTS_01 :
Play Length: 00:00:00
Video: NTSC 4:3 (720x480) VBR
VTS_02 :
Play Length: 01:47:03
Video: NTSC 4:3 (720x480) VBR
Audio:
English (Dolby AC3, 2 ch)
Subtitles:
English
Russian
VTS_03 :
Play Length: 00:00:20
Video: NTSC 4:3 (720x480) VBR
VTS_04 :
Play Length: 00:15:26
Video: NTSC 16:9 (720x480) VBR, Auto Letterboxed
Audio:
English (Dolby AC3, 2 ch)
VTS_05 :
Play Length: 00:22:44
Video: NTSC 16:9 (720x480) VBR, Auto Letterboxed
Audio:
English (Dolby AC3, 2 ch)
VTS_06 :
Play Length: 00:00:00
Video: NTSC 4:3 (720x480) VBR

Mediainfo

Общее
Полное имя : F:\Master of the house DVD-9_Custom_Criterion#706\VIDEO_TS\VTS_02_5.VOB
Формат : MPEG-PS
Размер файла : 1024 Мбайт
Продолжительность : 16 м. 1 с.
Режим общего битрейта : Переменный
Общий поток : 8933 Кбит/сек
Видео
Идентификатор : 224 (0xE0)
Формат : MPEG Video
Версия формата : Version 2
Профиль формата : Main@Main
Параметр BVOP формата : Да
Параметр матрицы формата : Выборочная
Параметр GOP формата : Variable
Структура изображения : Frame
Продолжительность : 16 м. 1 с.
Вид битрейта : Переменный
Битрейт : 8371 Кбит/сек
Максимальный битрейт : 9800 Кбит/сек
Ширина : 720 пикселей
Высота : 480 пикселей
Соотношение сторон : 4:3
Частота кадров : 29,970 (30000/1001) кадров/сек
Стандарт вещания : NTSC
Цветовое пространство : YUV
Субдискретизация насыщенности : 4:2:0
Битовая глубина : 8 бит
Тип развёртки : Чересстрочная
Порядок развёртки : Верхнее поле первое
Метод сжатия : С потерями
Бит/(Пиксели*Кадры) : 0.808
Временной код первого кадра : 02:13:39:18
Оригинал временного кода : Group of pictures header
GOP, открыто/закрыто : Открыто
Размер потока : 960 Мбайт (94%)
Аудио
Идентификатор : 189 (0xBD)-128 (0x80)
Формат : AC-3
Формат/Информация : Audio Coding 3
Расширение режима : CM (complete main)
Параметр Endianness формата : Big
Режим смешивания : DVD-Video
Продолжительность : 16 м. 1 с.
Вид битрейта : Постоянный
Битрейт : 384 Кбит/сек
Каналы : 2 канала
Расположение каналов : Front: L R
Частота : 48,0 КГц
Частота кадров : 31,250 кадров/сек (1536 spf)
Метод сжатия : С потерями
Задержка видео : -331 мс.
Размер потока : 44,0 Мбайт (4%)
Текст
Идентификатор : 189 (0xBD)-33 (0x21)
Формат : RLE
Формат/Информация : Run-length encoding
Режим смешивания : DVD-Video

Скриншоты меню

Скриншоты фильма

Скриншоты доп. материалов


Полиграфия


Релиз: Уважаемые пользователи!Найдите пару минут поблагодарить релизера и высказаться в топике раздачи.Ваше мнение - бальзам для раздающего и пища для ума остальным пользователям.Мои раздачи
Вы не можете начинать темы
Вы не можете отвечать на сообщения
Вы не можете редактировать свои сообщения
Вы не можете удалять свои сообщения
Вы не можете голосовать в опросах
Вы не можете прикреплять файлы к сообщениям
Вы можете скачивать файлы
!ВНИМАНИЕ!

Сайт не предоставляет электронные версии произведений, а занимается лишь коллекционированием и каталогизацией ссылок, присылаемых и публикуемых на форуме нашими читателями. Если вы являетесь правообладателем какого-либо представленного материала и не желаете, чтобы ссылка на него находилась в нашем каталоге, свяжитесь с нами, и мы незамедлительно удалим ее. Файлы для обмена на трекере предоставлены пользователями сайта, и администрация не несет ответственности за их содержание. Просьба не заливать файлы, защищенные авторскими правами, а также файлы нелегального содержания!

Искали программы, игры, дополнения, музыка mp3, аниме, аудио книги, журналы? Добро пожаловать на свободный торрент трекер Torrents, у нас можно скачать бесплатно, без смс и регистрации и прочих ограничений лучшие, отборные сборки программ, игр. Скачать торрентом не составит труда даже не опытному пользователю. Раздачи ежедневно обновляются, только лучшие и качественные раздачи, подробные описания и скриншоты. Огромная коллекция программ для работы со звуком, графикой, дизайном, а так же множество плагинов и инструментов к ним с подробной инструкцией и рекомендациями. Прошивки для навигаторов, карты. Разнообразные игры, для Windows, Linux. В коллекцие есть и старые игры любых жанров, Rpg, Action, Shooter, strategy Множество дополнений, модификаций, сценариев для популярных игр в жанре экш, рпг, гонки, стратегии, логические игры. Множество аддонов и сценариев для Microsoft Flight Simulator Большая коллекция книг, учебников. Если нет возможности купить печатное издание - смело скачивайте цифровую версию книги или, быть может, журнала. Не любите читать - можно загрузить бесплатно аудикнигу. Для веб дизайнеров и программистов так же найдется множество специализированного софта, таких как: редакторы с подсветкой, среды программирования, компоненты, системы управления базами данных, разнообразные скрипты и шаблоны. Не так давно у нас появился материал для автолюбителей и владельцев мото - оригинальные и неоригинальные каталоги запчастей, книги и журналы по ремонту и обслуживанию, видеоуроки, статьи по чип тюнингу, прошивкам. Процедура получения контента элементарная, достаточно просто скачать торрент файл и добавить его в загрузку в вашем торрент клиенте. Если у вас нет специального торрент клиента, вы можете его скачать у нас.