Беспощадный / Безжалостный / The Merciless / Bulhandang / Boolhandang: nabbeun nomdeului sesang (Пён Сон Хён / Byeon Seong-hyeon) [2017, Южная Корея, экшн, криминал, драма, HDRip] DVO 

Цитировать
Беспощадный / Безжалостный
The Merciless
Bulhandang / Boolhandang: nabbeun nomdeului sesang
Страна: Южная Корея
Жанр: экшн, криминал, драма
Год выпуска: 2017
Продолжительность: 02:00:10
Перевод: Любительский (двухголосый закадровый)
Субтитры: corean - hardsubРелиз группы: Перевод: DeadSno
Озвучка: den904 & DeadSno

Режиссер: Пён Сон Хён / Byeon Seong-hyeon
В ролях:
Соль Гён-гу / Seol Gyeong-goo
Им Щи-ван / Im Shi-wan
Ким Хи-вон / Kim Hee-won
Чон Хе-джин / Jeon Hye-jin
Ли Гён-ён / Lee Gyeong-yeong
Описание:
Джэ Хо - являясь одним из самых крутых бандитов, отбывает свой срок в тюрьме. Среди заключенных он обладает большой властью, диктуя свои правила и капризы и его авторитет непререкаем. За пределами тюрьмы, в преступной группировке, Джэ Хо является вторым номером и он достаточно амбициозен, чтобы желать стать номером один, намереваясь без особых проблем захватить власть сразу же после своего освобождения.
Однажды в тюрьме появляется новый сиделец Хён Су — молодой, борзый и непокорный.
Джэ Хо берёт его под свою опеку, планируя взять в банду после отсидки.
Доп. информация:ВНИМАНИЕ!!!
ФИЛЬМ СОДЕРЖИТ СЦЕНЫ НАСИЛИЯ
И
НЕНОРМАТИВНОЙ ЛЕКСИКИ!!!


Сэмпл: http://sendfile.su/1358975
Качество видео: HDRip
Формат видео: AVI
Видео: XviD, 720x304, 23,976 fps, 0.289бит, 1514 Кбит/сек
Аудио: AC-3, 48,0 КГц, 192 Кбит/сек, 2 ch

MediaInfo

Общее
Полное имя : D:\Беспощадный\Беспощадный.avi
Формат : AVI
Формат/Информация : Audio Video Interleave
Размер файла : 1,44 Гбайт
Продолжительность : 2 ч. 0 м.
Общий поток : 1716 Кбит/сек
Программа кодирования : VirtualDubMod 1.5.10.3 | www.virtualdub-fr.org || (build 2550/release)
Библиотека кодирования : VirtualDubMod build 2550/release
Видео
Идентификатор : 0
Формат : MPEG-4 Visual
Профиль формата : Advanced Simple@L5
Параметр BVOP формата : 1
Параметр QPel формата : Нет
Параметр GMC формата : Без точки перехода
Параметр матрицы формата : Default (H.263)
Идентификатор кодека : XVID
Идентификатор кодека/Подсказка : XviD
Продолжительность : 2 ч. 0 м.
Битрейт : 1514 Кбит/сек
Ширина : 720 пикселей
Высота : 304 пикселя
Соотношение сторон : 2,35:1
Частота кадров : 23,976 (23976/1000) кадра/сек
Цветовое пространство : YUV
Субдискретизация насыщенности : 4:2:0
Битовая глубина : 8 бит
Тип развёртки : Прогрессивная
Метод сжатия : С потерями
Бит/(Пиксели*Кадры) : 0.289
Размер потока : 1,27 Гбайт (88%)
Библиотека кодирования : XviD 1.2.1 (UTC 2008-12-04)
Аудио
Идентификатор : 1
Формат : AC-3
Формат/Информация : Audio Coding 3
Расширение режима : CM (complete main)
Параметр Endianness формата : Big
Идентификатор кодека : 2000
Продолжительность : 2 ч. 0 м.
Вид битрейта : Постоянный
Битрейт : 192 Кбит/сек
Каналы : 2 канала
Расположение каналов : Front: L R
Частота : 48,0 КГц
Частота кадров : 31,250 кадров/сек (1536 spf)
Метод сжатия : С потерями
Размер потока : 165 Мбайт (11%)
Выравнивание : Разделение по промежуткам
Продолжительность промежутка : 42 мс. (1,00 видеокадр)
Время предзагрузки промежутка : 500 мс.

Скриншот c названием фильма


Вы не можете начинать темы
Вы не можете отвечать на сообщения
Вы не можете редактировать свои сообщения
Вы не можете удалять свои сообщения
Вы не можете голосовать в опросах
Вы не можете прикреплять файлы к сообщениям
Вы можете скачивать файлы
!ВНИМАНИЕ!

Сайт не предоставляет электронные версии произведений, а занимается лишь коллекционированием и каталогизацией ссылок, присылаемых и публикуемых на форуме нашими читателями. Если вы являетесь правообладателем какого-либо представленного материала и не желаете, чтобы ссылка на него находилась в нашем каталоге, свяжитесь с нами, и мы незамедлительно удалим ее. Файлы для обмена на трекере предоставлены пользователями сайта, и администрация не несет ответственности за их содержание. Просьба не заливать файлы, защищенные авторскими правами, а также файлы нелегального содержания!

Искали программы, игры, дополнения, музыка mp3, аниме, аудио книги, журналы? Добро пожаловать на свободный торрент трекер Torrents, у нас можно скачать бесплатно, без смс и регистрации и прочих ограничений лучшие, отборные сборки программ, игр. Скачать торрентом не составит труда даже не опытному пользователю. Раздачи ежедневно обновляются, только лучшие и качественные раздачи, подробные описания и скриншоты. Огромная коллекция программ для работы со звуком, графикой, дизайном, а так же множество плагинов и инструментов к ним с подробной инструкцией и рекомендациями. Прошивки для навигаторов, карты. Разнообразные игры, для Windows, Linux. В коллекцие есть и старые игры любых жанров, Rpg, Action, Shooter, strategy Множество дополнений, модификаций, сценариев для популярных игр в жанре экш, рпг, гонки, стратегии, логические игры. Множество аддонов и сценариев для Microsoft Flight Simulator Большая коллекция книг, учебников. Если нет возможности купить печатное издание - смело скачивайте цифровую версию книги или, быть может, журнала. Не любите читать - можно загрузить бесплатно аудикнигу. Для веб дизайнеров и программистов так же найдется множество специализированного софта, таких как: редакторы с подсветкой, среды программирования, компоненты, системы управления базами данных, разнообразные скрипты и шаблоны. Не так давно у нас появился материал для автолюбителей и владельцев мото - оригинальные и неоригинальные каталоги запчастей, книги и журналы по ремонту и обслуживанию, видеоуроки, статьи по чип тюнингу, прошивкам. Процедура получения контента элементарная, достаточно просто скачать торрент файл и добавить его в загрузку в вашем торрент клиенте. Если у вас нет специального торрент клиента, вы можете его скачать у нас.