Айки / Aiki (Дайсукэ Тэнган / Daisuke Tengan) [2002, Япония, Боевые искусства, Драма, DVDRip] AVO (Смирнов А. Е.) 

Цитировать
Айки / Aiki
Страна: Япония
Жанр: Боевые искусства, Драма
Год выпуска: 2002
Продолжительность: 01:59:46
Перевод: Авторский (одноголосый закадровый) Смирнов А. Е.
Субтитры: нет
Оригинальная аудиодорожка: японский
Режиссер: Дайсукэ Тэнган / Daisuke Tengan
В ролях: Томорово Тагути (Сабуро Ишикава), Мики Кертис (Миядзи), Масатоси Нагасе (Бармен), Широ Сано (Video-ya no kyaku), Рё Исибаси (Масацугу Хираиси)
Описание: Молодой преуспевающий боксер Тайти Асивара готовится к очередному чемпионату, когда ужасная автокатастрофа вдруг отнимает у него способность ходить. Желая хоть как-нибудь тренировать ослабевшее тело, Тайти посещает многие спортивные клубы, но везде получает от ворот поворот. Его мечты разбиты, он остается безработным и не видит никакой цели в жизни. Волей случая он устраивается работать уличным торговцем, и однажды ночью на городском рынке встречает девушку по имени Самако. Та приглашает его к себе на работу — в синтоистский храм, при котором открыта секция айкидо. Тренер секции, мастер Хираиси, принимает Тайти без колебаний. Сэнсэй приучает его к главной мысли: «твоя коляска — это часть тебя», и постепенно Тайти становится непобедим, даже будучи инвалидом.
Дополнительно: В правильном переводе Смирнова А. Е. с переводом песен и значимых титров.... (от человека в теме...)
За сборку спасибо Alex3317...
Сэмпл: http://sendfile.su/1359467
Качество видео: DVDRip
Формат видео: MKV
Видео: MPEG4 Video (H264) 720x480@853x480 (16:9) 23.976fps 904 Кбит/с
Аудио: Dolby AC3 48000Hz stereo 448kbps rus Смирнов А. Е.
Аудио 2: Dolby AC3 48000Hz stereo 448kbps jpn

MediaInfo

General
Unique ID : 264835484940335983874607409146281491291 (0xC73D758627A5414D61F6CB2260367B5B)
Complete name : E:\Раздачи\Aiki new\Aiki new.mkv
Format : Matroska
Format version : Version 4 / Version 2
File size : 1.48 GiB
Duration : 1 h 59 min
Overall bit rate : 1 767 kb/s
Encoded date : UTC 2017-09-03T07:10:52Z
Writing application : HandBrake 1.0.7 2017040900
Writing library : Lavf57.7.2 / Lavf57.7.2
Video
ID : 1
Format : AVC
Format/Info : Advanced Video Codec
Format profile : Main@L4
Format settings, CABAC : Yes
Format settings, ReFrames : 4 frames
Codec ID : V_MPEG4/ISO/AVC
Duration : 1 h 59 min
Bit rate : 836 kb/s
Width : 720 pixels
Height : 480 pixels
Display aspect ratio : 16:9
Frame rate mode : Constant
Frame rate : 23.976 (24000/1001) FPS
Color space : YUV
Chroma subsampling : 4:2:0
Bit depth : 8 bits
Scan type : Progressive
Bits/(Pixel*Frame) : 0.101
Stream size : 716 MiB (47%)
Writing library : x264 core 148 r2708 86b7198
Encoding settings : cabac=1 / ref=2 / deblock=1:0:0 / analyse=0x1:0x111 / me=hex / subme=6 / psy=1 / psy_rd=1.00:0.00 / mixed_ref=1 / me_range=16 / chroma_me=1 / trellis=1 / 8x8dct=0 / cqm=0 / deadzone=21,11 / fast_pskip=1 / chroma_qp_offset=-2 / threads=6 / lookahead_threads=1 / sliced_threads=0 / nr=0 / decimate=1 / interlaced=0 / bluray_compat=0 / constrained_intra=0 / bframes=3 / b_pyramid=2 / b_adapt=1 / b_bias=0 / direct=1 / weightb=1 / open_gop=0 / weightp=1 / keyint=240 / keyint_min=24 / scenecut=40 / intra_refresh=0 / rc_lookahead=30 / rc=crf / mbtree=1 / crf=22.0 / qcomp=0.60 / qpmin=0 / qpmax=69 / qpstep=4 / vbv_maxrate=20000 / vbv_bufsize=25000 / crf_max=0.0 / nal_hrd=none / filler=0 / ip_ratio=1.40 / aq=1:1.00
Default : Yes
Forced : No
Color range : Limited
Color primaries : BT.601 NTSC
Transfer characteristics : BT.709
Matrix coefficients : BT.601
Audio #1
ID : 2
Format : AC-3
Format/Info : Audio Coding 3
Format settings, Endianness : Big
Codec ID : A_AC3
Duration : 1 h 59 min
Bit rate mode : Constant
Bit rate : 448 kb/s
Channel(s) : 2 channels
Channel positions : Front: L R
Sampling rate : 48.0 kHz
Frame rate : 31.250 FPS (1536 spf)
Bit depth : 16 bits
Compression mode : Lossy
Delay relative to video : -5 ms
Stream size : 384 MiB (25%)
Title : Stereo
Language : Russian
Service kind : Complete Main
Default : Yes
Forced : No
Audio #2
ID : 3
Format : AC-3
Format/Info : Audio Coding 3
Format settings, Endianness : Big
Codec ID : A_AC3
Duration : 1 h 59 min
Bit rate mode : Constant
Bit rate : 448 kb/s
Channel(s) : 2 channels
Channel positions : Front: L R
Sampling rate : 48.0 kHz
Frame rate : 31.250 FPS (1536 spf)
Bit depth : 16 bits
Compression mode : Lossy
Delay relative to video : -5 ms
Stream size : 384 MiB (25%)
Title : Stereo
Language : Japanese
Service kind : Complete Main
Default : No
Forced : No
Text #1
ID : 4
Format : VobSub
Codec ID : S_VOBSUB
Codec ID/Info : Picture based subtitle format used on DVDs
Default : No
Forced : No
Text #2
ID : 5
Format : VobSub
Codec ID : S_VOBSUB
Codec ID/Info : Picture based subtitle format used on DVDs
Default : No
Forced : No
Text #3
ID : 6
Format : VobSub
Codec ID : S_VOBSUB
Codec ID/Info : Picture based subtitle format used on DVDs
Default : No
Forced : No
Text #4
ID : 7
Format : VobSub
Codec ID : S_VOBSUB
Codec ID/Info : Picture based subtitle format used on DVDs
Default : No
Forced : No
Text #5
ID : 8
Format : VobSub
Codec ID : S_VOBSUB
Codec ID/Info : Picture based subtitle format used on DVDs
Default : No
Forced : No
Text #6
ID : 9
Format : VobSub
Codec ID : S_VOBSUB
Codec ID/Info : Picture based subtitle format used on DVDs
Default : No
Forced : No
Menu
00:00:00.000 : :Chapter 1
00:01:37.431 : :Chapter 2
00:14:46.794 : :Chapter 3
00:24:17.731 : :Chapter 4
00:34:48.470 : :Chapter 5
00:45:59.098 : :Chapter 6
00:48:06.100 : :Chapter 7
00:56:10.751 : :Chapter 8
01:06:46.886 : :Chapter 9
01:13:45.730 : :Chapter 10
01:21:12.418 : :Chapter 11
01:26:05.268 : :Chapter 12
01:37:33.231 : :Chapter 13
01:48:25.549 : :Chapter 14
01:56:25.754 : :Chapter 15
01:59:44.085 : :Chapter 16

Скриншот c названием фильма

Скриншоты

Вы не можете начинать темы
Вы не можете отвечать на сообщения
Вы не можете редактировать свои сообщения
Вы не можете удалять свои сообщения
Вы не можете голосовать в опросах
Вы не можете прикреплять файлы к сообщениям
Вы можете скачивать файлы
!ВНИМАНИЕ!

Сайт не предоставляет электронные версии произведений, а занимается лишь коллекционированием и каталогизацией ссылок, присылаемых и публикуемых на форуме нашими читателями. Если вы являетесь правообладателем какого-либо представленного материала и не желаете, чтобы ссылка на него находилась в нашем каталоге, свяжитесь с нами, и мы незамедлительно удалим ее. Файлы для обмена на трекере предоставлены пользователями сайта, и администрация не несет ответственности за их содержание. Просьба не заливать файлы, защищенные авторскими правами, а также файлы нелегального содержания!

Искали программы, игры, дополнения, музыка mp3, аниме, аудио книги, журналы? Добро пожаловать на свободный торрент трекер Torrents, у нас можно скачать бесплатно, без смс и регистрации и прочих ограничений лучшие, отборные сборки программ, игр. Скачать торрентом не составит труда даже не опытному пользователю. Раздачи ежедневно обновляются, только лучшие и качественные раздачи, подробные описания и скриншоты. Огромная коллекция программ для работы со звуком, графикой, дизайном, а так же множество плагинов и инструментов к ним с подробной инструкцией и рекомендациями. Прошивки для навигаторов, карты. Разнообразные игры, для Windows, Linux. В коллекцие есть и старые игры любых жанров, Rpg, Action, Shooter, strategy Множество дополнений, модификаций, сценариев для популярных игр в жанре экш, рпг, гонки, стратегии, логические игры. Множество аддонов и сценариев для Microsoft Flight Simulator Большая коллекция книг, учебников. Если нет возможности купить печатное издание - смело скачивайте цифровую версию книги или, быть может, журнала. Не любите читать - можно загрузить бесплатно аудикнигу. Для веб дизайнеров и программистов так же найдется множество специализированного софта, таких как: редакторы с подсветкой, среды программирования, компоненты, системы управления базами данных, разнообразные скрипты и шаблоны. Не так давно у нас появился материал для автолюбителей и владельцев мото - оригинальные и неоригинальные каталоги запчастей, книги и журналы по ремонту и обслуживанию, видеоуроки, статьи по чип тюнингу, прошивкам. Процедура получения контента элементарная, достаточно просто скачать торрент файл и добавить его в загрузку в вашем торрент клиенте. Если у вас нет специального торрент клиента, вы можете его скачать у нас.