Это не наши проблемы / Mondai no nai watashitachi / 問題のない私たち (Тошиюки Мориока / Toshiyuki Morioka) [2004, Япония, Драма, WEBRip-AVC] Sub Rus (ФСГ MoonCat) + Original jpn 

Цитировать
Это не наши проблемы / Mondai no nai watashitachi / 問題のない私たち
Страна: Япония
Жанр: Драма
Год выпуска: 2004
Продолжительность: 01:37:24
Перевод: Субтитры ФСГ MoonCat
Субтитры: русские
Оригинальная аудиодорожка: Японский
Релиз:

Режиссер: Тошиюки Мориока / Toshiyuki Morioka
В ролях: Мэи Курокава / Mei Kurokawa, Эрика Саваджири / Erika Sawajiri, Минами Баже / Minami Bages, Эрика Мори / Erika Mori, Мегуми Комацу / Megumi Komatsu, Акира Хамада / Akira Hamada, Махо Нонами / Maha Nonami, Нене Оцука / Nene Otsuka, Масанобу Кацумура / Masanobu Katsumura, Кадзухиро Накахара / Kazuhiro Nakahara, Хидео Сато / Hideo Sato, Рие Ясума / Rie Yasuma, Томона Хирота / Tomona Hirota, Хидео Сако / Hideo Sako
Описание: Сасаока Мио лидер класса, она издевается над своей одноклассницей Марией, но все меняется, когда в их класс переводят новую ученицу Шинтани Маки.
Сэмпл: http://www.mediafire.com/file/9nkvib7q2disvxf/sample.mp4
Качество видео: WEBRip
Формат видео: MP4
Видео: H264 - MPEG-4 AVC (part 10) (avc1), 640x386, 29.970029, Planar 4:2:0 YUV, 495 Кбит/сек
Аудио: MPEG AAC Audio (mp4a), Стерео, 44100 Гц, 128 Кбит/сек
Формат субтитров: hardsub (неотключаемые)

MediaInfo

Общее
Полное имя : E:\Дорамы\Япония\FSG MoonCat\_Mooncat__Это_не_наши_проблемы_Mondai_no_nai_watas___.mp4
Формат : MPEG-4
Профиль формата : Base Media
Идентификатор кодека : isom (isom/iso2/avc1/mp41)
Размер файла : 435 Мбайт
Продолжительность : 1 ч. 37 м.
Общий поток : 625 Кбит/сек
Программа кодирования : Lavf56.25.101
Видео
Идентификатор : 1
Формат : AVC
Формат/Информация : Advanced Video Codec
Профиль формата : Baseline@L3
Параметр CABAC формата : Нет
Параметр RefFrames формата : 3 кадра
Параметр GOP формата : M=1, N=30
Идентификатор кодека : avc1
Идентификатор кодека/Информация : Advanced Video Coding
Продолжительность : 1 ч. 37 м.
Битрейт : 495 Кбит/сек
Ширина : 640 пикселей
Высота : 360 пикселей
Соотношение сторон : 16:9
Режим частоты кадров : Постоянный
Частота кадров : 29,970 (30000/1001) кадров/сек
Цветовое пространство : YUV
Субдискретизация насыщенности : 4:2:0
Битовая глубина : 8 бит
Тип развёртки : Прогрессивная
Бит/(Пиксели*Кадры) : 0.072
Размер потока : 341 Мбайт (78%)
Библиотека кодирования : x264 core 142
Настройки программы : cabac=0 / ref=3 / deblock=1:0:0 / analyse=0x1:0x111 / me=hex / subme=7 / psy=1 / psy_rd=1.00:0.00 / mixed_ref=1 / me_range=16 / chroma_me=1 / trellis=1 / 8x8dct=0 / cqm=0 / deadzone=21,11 / fast_pskip=1 / chroma_qp_offset=-2 / threads=6 / lookahead_threads=1 / sliced_threads=0 / nr=0 / decimate=1 / interlaced=0 / bluray_compat=0 / constrained_intra=0 / bframes=0 / weightp=0 / keyint=30 / keyint_min=3 / scenecut=40 / intra_refresh=0 / rc_lookahead=30 / rc=abr / mbtree=1 / bitrate=495 / ratetol=1.0 / qcomp=0.60 / qpmin=0 / qpmax=69 / qpstep=4 / ip_ratio=1.40 / aq=1:1.00
Аудио
Идентификатор : 2
Формат : AAC
Формат/Информация : Advanced Audio Codec
Профиль формата : LC
Идентификатор кодека : 40
Продолжительность : 1 ч. 37 м.
Duration_LastFrame : -22 мс.
Вид битрейта : Постоянный
Битрейт : 128 Кбит/сек
Каналы : 2 канала
Расположение каналов : Front: L R
Частота : 44,1 КГц
Частота кадров : 43,066 кадра/сек (1024 SPF)
Метод сжатия : С потерями
Размер потока : 89,1 Мбайт (20%)
Default : Да
AlternateGroup/String : 1

Скриншот c названием фильма

Скриншоты






Вы не можете начинать темы
Вы не можете отвечать на сообщения
Вы не можете редактировать свои сообщения
Вы не можете удалять свои сообщения
Вы не можете голосовать в опросах
Вы не можете прикреплять файлы к сообщениям
Вы можете скачивать файлы
!ВНИМАНИЕ!

Сайт не предоставляет электронные версии произведений, а занимается лишь коллекционированием и каталогизацией ссылок, присылаемых и публикуемых на форуме нашими читателями. Если вы являетесь правообладателем какого-либо представленного материала и не желаете, чтобы ссылка на него находилась в нашем каталоге, свяжитесь с нами, и мы незамедлительно удалим ее. Файлы для обмена на трекере предоставлены пользователями сайта, и администрация не несет ответственности за их содержание. Просьба не заливать файлы, защищенные авторскими правами, а также файлы нелегального содержания!

Искали программы, игры, дополнения, музыка mp3, аниме, аудио книги, журналы? Добро пожаловать на свободный торрент трекер Torrents, у нас можно скачать бесплатно, без смс и регистрации и прочих ограничений лучшие, отборные сборки программ, игр. Скачать торрентом не составит труда даже не опытному пользователю. Раздачи ежедневно обновляются, только лучшие и качественные раздачи, подробные описания и скриншоты. Огромная коллекция программ для работы со звуком, графикой, дизайном, а так же множество плагинов и инструментов к ним с подробной инструкцией и рекомендациями. Прошивки для навигаторов, карты. Разнообразные игры, для Windows, Linux. В коллекцие есть и старые игры любых жанров, Rpg, Action, Shooter, strategy Множество дополнений, модификаций, сценариев для популярных игр в жанре экш, рпг, гонки, стратегии, логические игры. Множество аддонов и сценариев для Microsoft Flight Simulator Большая коллекция книг, учебников. Если нет возможности купить печатное издание - смело скачивайте цифровую версию книги или, быть может, журнала. Не любите читать - можно загрузить бесплатно аудикнигу. Для веб дизайнеров и программистов так же найдется множество специализированного софта, таких как: редакторы с подсветкой, среды программирования, компоненты, системы управления базами данных, разнообразные скрипты и шаблоны. Не так давно у нас появился материал для автолюбителей и владельцев мото - оригинальные и неоригинальные каталоги запчастей, книги и журналы по ремонту и обслуживанию, видеоуроки, статьи по чип тюнингу, прошивкам. Процедура получения контента элементарная, достаточно просто скачать торрент файл и добавить его в загрузку в вашем торрент клиенте. Если у вас нет специального торрент клиента, вы можете его скачать у нас.