Ниндзя чемпион / Ninja champion (Годфри Хо / Godfrey Ho) [1985, Гонконг, боевик, боевые искусства, VHSRip] AVO (Андрей Гаврилов) 

Цитировать
Ниндзя чемпион / Ninja champion Страна: Гонконг
Жанр: боевик, боевые искусства
Год выпуска: 1985
Продолжительность: 01:27:10
Перевод: Авторский (одноголосый закадровый) (Андрей Гаврилов)
Субтитры: нет
Режиссер: Годфри Хо / Godfrey Ho
В ролях: Брюс Барон, Пьер Тремблэ, Филлип Чинг, Джек Лам, Нэнси Чанг, Ричард Харрисон, Джеймс Чан, Драгон Ли, Джон Вонг, Мария Кэм
Описание: Сотрудник ЦРУ Дональд, получивший задание разобраться с шайкой международных контрабандистов драгоценностями и ювелирными изделиями, все члены которой по воле случая являются ниндзя. Но по счастливому стечению обстоятельств Дональд также владеет этим смертоносным искусством, а потому без страха вступает в схватку с плохими ниндзя, всякий раз облачаясь в ослепительно белое одеяние ниндзя, стильно сочетающееся с его чёрными тапочками. Впрочем, красные костюмы его противников тоже приятно гармонируют с чёрным цветов их обуви.
Другое описание: Трое мужчин ночью нападают на туристку, избивают и насилуют её. Через некоторое время женщина, жаждущая мщения, отыскивает своих насильников, оказавшихся контрабандистами, специализирующимися на алмазах, и выдаёт себя за скупщицу краденого. Но одной ей не справиться, и она призывает на помощь своего бывшего мужа — Дональда, агента Интерпола, который также хочет взять мошенников с поличным.
Все члены банды являются ниндзя. Однако Дональд уверен, что сможет с ними справиться, ибо также в совершенстве владеет целым рядом боевых искусств. Он без страха вступает в схватку с бандитами, облачившись в кипенно-белоснежный костюм воина.
Доп. информация: Встречайте! Один из самых самых трэшевых фильмов величайшего режиссера Годфри Хо.
Фильм эпохи видеосалонов 90-х годов прошлого века. На мегапопулярную тогда тему ниндзя и карате. Возрастное ограничение 18+.
Рип сделан с кассеты VHS на рекордере. Источник DVD здесь
Rip by kohora
Приятного всем просмотра!!!- - -Качество видео: VHSRip
Формат видео: AVI
Видео: XVID 720 x 500, 2115 Кбит/сек, 25 fps
Аудио: AC3 192 кбит/сек, 2 канала (L R), 48,0 КГц

Скриншот c названием фильма

MI

Общее
Полное имя : Ниндзя чемпион 1985, Гонконг, боевые искусства by kohora.avi
Формат : AVI
Формат/Информация : Audio Video Interleave
Размер файла : 1,41 Гбайт
Продолжительность : 1 ч. 27 м.
Общий поток : 2316 Кбит/сек
Программа кодирования : VirtualDubModRus 1.5.10.2 (build 2542/release)
Библиотека кодирования : VirtualDubMod build 2542/release
Примечание : by kohora
Видео
Идентификатор : 0
Формат : MPEG-4 Visual
Профиль формата : Advanced Simple@L5
Параметр BVOP формата : 2
Параметр QPel формата : Нет
Параметр GMC формата : Без точки перехода
Параметр матрицы формата : Выборочная
Идентификатор кодека : XVID
Идентификатор кодека/Подсказка : XviD
Продолжительность : 1 ч. 27 м.
Битрейт : 2115 Кбит/сек
Ширина : 720 пикселей
Высота : 500 пикселей
Соотношение сторон : 1,440
Частота кадров : 25,000 кадров/сек
Цветовое пространство : YUV
Субдискретизация насыщенности : 4:2:0
Битовая глубина : 8 бит
Тип развёртки : Прогрессивная
Метод сжатия : С потерями
Бит/(Пиксели*Кадры) : 0.235
Размер потока : 1,29 Гбайт (91%)
Библиотека кодирования : XviD 73
Аудио
Идентификатор : 1
Формат : AC-3
Формат/Информация : Audio Coding 3
Параметр Endianness формата : Big
Идентификатор кодека : 2000
Продолжительность : 1 ч. 27 м.
Вид битрейта : Постоянный
Битрейт : 192 Кбит/сек
Каналы : 2 канала
Расположение каналов : Front: L R
Частота : 48,0 КГц
Частота кадров : 31,250 кадров/сек (1536 SPF)
Битовая глубина : 16 бит
Метод сжатия : С потерями
Размер потока : 120 Мбайт (8%)
Выравнивание : Соединение по промежуткам
Продолжительность промежутка : 40 мс. (1,00 видеокадр)
Время предзагрузки промежутка : 512 мс.
Заголовок : Russian
ServiceKind/String : Complete Main
Ссылки на мои файлы Раздача
Вы не можете начинать темы
Вы не можете отвечать на сообщения
Вы не можете редактировать свои сообщения
Вы не можете удалять свои сообщения
Вы не можете голосовать в опросах
Вы не можете прикреплять файлы к сообщениям
Вы можете скачивать файлы
!ВНИМАНИЕ!

Сайт не предоставляет электронные версии произведений, а занимается лишь коллекционированием и каталогизацией ссылок, присылаемых и публикуемых на форуме нашими читателями. Если вы являетесь правообладателем какого-либо представленного материала и не желаете, чтобы ссылка на него находилась в нашем каталоге, свяжитесь с нами, и мы незамедлительно удалим ее. Файлы для обмена на трекере предоставлены пользователями сайта, и администрация не несет ответственности за их содержание. Просьба не заливать файлы, защищенные авторскими правами, а также файлы нелегального содержания!

Искали программы, игры, дополнения, музыка mp3, аниме, аудио книги, журналы? Добро пожаловать на свободный торрент трекер Torrents, у нас можно скачать бесплатно, без смс и регистрации и прочих ограничений лучшие, отборные сборки программ, игр. Скачать торрентом не составит труда даже не опытному пользователю. Раздачи ежедневно обновляются, только лучшие и качественные раздачи, подробные описания и скриншоты. Огромная коллекция программ для работы со звуком, графикой, дизайном, а так же множество плагинов и инструментов к ним с подробной инструкцией и рекомендациями. Прошивки для навигаторов, карты. Разнообразные игры, для Windows, Linux. В коллекцие есть и старые игры любых жанров, Rpg, Action, Shooter, strategy Множество дополнений, модификаций, сценариев для популярных игр в жанре экш, рпг, гонки, стратегии, логические игры. Множество аддонов и сценариев для Microsoft Flight Simulator Большая коллекция книг, учебников. Если нет возможности купить печатное издание - смело скачивайте цифровую версию книги или, быть может, журнала. Не любите читать - можно загрузить бесплатно аудикнигу. Для веб дизайнеров и программистов так же найдется множество специализированного софта, таких как: редакторы с подсветкой, среды программирования, компоненты, системы управления базами данных, разнообразные скрипты и шаблоны. Не так давно у нас появился материал для автолюбителей и владельцев мото - оригинальные и неоригинальные каталоги запчастей, книги и журналы по ремонту и обслуживанию, видеоуроки, статьи по чип тюнингу, прошивкам. Процедура получения контента элементарная, достаточно просто скачать торрент файл и добавить его в загрузку в вашем торрент клиенте. Если у вас нет специального торрент клиента, вы можете его скачать у нас.