Структура кристалла / Struktura krysztalu (Кшиштоф Занусси / Krzysztof Zanussi) [1969, Польша, Психологическая драма, DVD5] MVO + original + sub 

Цитировать
Структура кристалла / Struktura krysztalu
Год выпуска: 1969
Страна: Польша
Жанр: драма
Продолжительность: 01:13:52
Перевод: Профессиональный (двухголосый) CВ-Дубль по заказу ТВ Культура
Русские субтитры: есть (отдельное спасибо fiona123)
Режиссер: Кшиштоф Занусси
В ролях: Барбара Вжесинска, Анджей Зарнецки, Ян Мыслович, Владислав Ярема, Адам Дебский
Описание: Двое друзей в молодости вместе изучали физику. Теперь один из них — солидный ученый, другой — скромный метеоролог, работающий на периферии, живущий с молодой женой и чувствующий себя вполне счастливым человеком.
Однажды друзья встречаются, и между ними начинается горячий спор на тему профессиональной карьеры при социализме…
Фильм получил целый ряд призов на международных кинофестивалях, в том числе "Серебряного кондора" за лучший сценарий и приз за лучший дебют в Мар-дель-Плата, приз польской кинокритики "Варшавская сирена", специальный приз жюри в Панаме, призы в Вальядолиде и Коломбо.
Доп. информация: Для режиссёра этот фильм стал дебютным полнометражным художественным фильмом. В то время Кшиштофу было 29 лет. Он сам присутствовал на премьере своего фильма в кинотеатре «Москва». Премьера оказалась крайне неудачной — зрители покидали свои места во время фильма, в итоге Кшиштоф Занусси остался один на один со своим творением. Но несмотря на такую встречу фильма зрителем, режиссёр считает «Структуру кристалла» самым искренним из своих фильмов.
Большое спасибо iohannweiss за первоначальный тв-рип, работу со звуком - boeing747m и мне капельку, fiona123 за подготовку русских субтитров и мне капельку, а также tata23 и кое-кому еще, кому было не все равно.
За оригинальный двд спасибо rabbit. Он очень просил никуда двд не уносить с тика, я унесла, но скрою его от глаз польских пиратов, не указав оригинальное название фильма и имя режиссера.
В качестве бонусов - куча трейлеров и превьюшек музыкальных альбомов, не относящихся к фильму совершенно, фильмографии, отключен один маленький трейлер (и кнопка с ним отключена в меню), чтобы двд влез на двд5 (можно посмотреть на скриншоте внизу).
Фильм записан на болванку и скопирован заново на винт двдфабом про в режиме Весь диск с включенным пунктом Навигация (как советует tartak http://rutracker.org/forum/viewtopic.php?t=476173).
Переключение на польский трек и испанские субтитры только через меню. Остальные субтитры имеют свои кнопки.
Качество: DVD5
Формат: DVD Video
Видео кодек: MPEG2
Аудио кодек: AC3
Видео: PAL 16:9 (720x576) VBR анаморфное
Аудио: Russian (Dolby AC3, 2 ch, 192) Polish (Dolby AC3, 2 ch, 192)
Субтитры English, Francais, Deutsch, Russian, Espanol.

Mediainfo

General
Complete name : L:\structura\STRUKTURA_KRYSZTALU_RUS\VIDEO_TS\VTS_01_1.VOB
Format : MPEG-PS
File size : 1 024 MiB
Duration : 32mn 25s
Overall bit rate : 4 415 Kbps
Video
ID : 224 (0xE0)
Format : MPEG Video
Format version : Version 2
Format profile : Main@Main
Format settings, Matrix : Default
Duration : 32mn 25s
Bit rate mode : Variable
Bit rate : 3 819 Kbps
Nominal bit rate : 9 800 Kbps
Width : 720 pixels
Height : 576 pixels
Display aspect ratio : 16/9
Frame rate : 25.000 fps
Standard : PAL
Colorimetry : 4:2:0
Scan type : Interlaced
Scan order : Top Field First
Bits/(Pixel*Frame) : 0.368
Stream size : 886 MiB (86%)
Audio #1
ID : 128 (0x80)
Format : AC-3
Format/Info : Audio Coding 3
Duration : 32mn 25s
Bit rate mode : Constant
Bit rate : 192 Kbps
Channel(s) : 2 channels
Channel positions : L R
Sampling rate : 48.0 KHz
Stream size : 44.5 MiB (4%)
Audio #2
ID : 129 (0x81)
Format : AC-3
Format/Info : Audio Coding 3
Duration : 32mn 25s
Bit rate mode : Constant
Bit rate : 224 Kbps
Channel(s) : 2 channels
Channel positions : L R
Sampling rate : 48.0 KHz
Stream size : 51.9 MiB (5%)
Text #1
ID : 32 (0x20)
Format : RLE
Format/Info : Run-length encoding
Text #2
ID : 33 (0x21)
Format : RLE
Format/Info : Run-length encoding
Text #3
ID : 34 (0x22)
Format : RLE
Format/Info : Run-length encoding
Text #4
ID : 35 (0x23)
Format : RLE
Format/Info : Run-length encoding
Text #5
ID : 36 (0x24)
Format : RLE
Format/Info : Run-length encoding
Menu

Скриншоты

Вы не можете начинать темы
Вы не можете отвечать на сообщения
Вы не можете редактировать свои сообщения
Вы не можете удалять свои сообщения
Вы не можете голосовать в опросах
Вы не можете прикреплять файлы к сообщениям
Вы можете скачивать файлы
!ВНИМАНИЕ!

Сайт не предоставляет электронные версии произведений, а занимается лишь коллекционированием и каталогизацией ссылок, присылаемых и публикуемых на форуме нашими читателями. Если вы являетесь правообладателем какого-либо представленного материала и не желаете, чтобы ссылка на него находилась в нашем каталоге, свяжитесь с нами, и мы незамедлительно удалим ее. Файлы для обмена на трекере предоставлены пользователями сайта, и администрация не несет ответственности за их содержание. Просьба не заливать файлы, защищенные авторскими правами, а также файлы нелегального содержания!

Искали программы, игры, дополнения, музыка mp3, аниме, аудио книги, журналы? Добро пожаловать на свободный торрент трекер Torrents, у нас можно скачать бесплатно, без смс и регистрации и прочих ограничений лучшие, отборные сборки программ, игр. Скачать торрентом не составит труда даже не опытному пользователю. Раздачи ежедневно обновляются, только лучшие и качественные раздачи, подробные описания и скриншоты. Огромная коллекция программ для работы со звуком, графикой, дизайном, а так же множество плагинов и инструментов к ним с подробной инструкцией и рекомендациями. Прошивки для навигаторов, карты. Разнообразные игры, для Windows, Linux. В коллекцие есть и старые игры любых жанров, Rpg, Action, Shooter, strategy Множество дополнений, модификаций, сценариев для популярных игр в жанре экш, рпг, гонки, стратегии, логические игры. Множество аддонов и сценариев для Microsoft Flight Simulator Большая коллекция книг, учебников. Если нет возможности купить печатное издание - смело скачивайте цифровую версию книги или, быть может, журнала. Не любите читать - можно загрузить бесплатно аудикнигу. Для веб дизайнеров и программистов так же найдется множество специализированного софта, таких как: редакторы с подсветкой, среды программирования, компоненты, системы управления базами данных, разнообразные скрипты и шаблоны. Не так давно у нас появился материал для автолюбителей и владельцев мото - оригинальные и неоригинальные каталоги запчастей, книги и журналы по ремонту и обслуживанию, видеоуроки, статьи по чип тюнингу, прошивкам. Процедура получения контента элементарная, достаточно просто скачать торрент файл и добавить его в загрузку в вашем торрент клиенте. Если у вас нет специального торрент клиента, вы можете его скачать у нас.