Японские девушки в порту / Minato no nihonmusume / Japanese Girls at the Harbour (Хироси Симидзу / Hiroshi Shimizu)[1933, Япония, Драма, DVD5 (Custom)] Sub Eng, Rus (busiko) + Orig Jap / Criterion.Eclipse Series #15 

Цитировать
Японские девушки в порту / Minato no nihonmusume / Japanese Girls at the Harbour / Criterion.Eclipse Series #15
Страна:ЯпонияСтудия:Shochiku Films Ltd.Жанр:ДрамаГод выпуска:1933
Продолжительность:01:11:48Производство:Criterion.Eclipse Series #15Перевод:СубтитрыСубтитры:Английские, Русские busiko
Премьера (мир):30.04.1950 Режиссер:Хироси Симидзу / Hiroshi ShimizuВ ролях:Митико Ойкава — Сунако Курокава
Юкико Иноуэ — Дора Кеннел
Урэо Эгава — Генри
Ранко Сава — Йоко Шеридан
Юмэко Айдзомэ — Масуми
Тацуо Сайто — Миура, художник
Ясуо Нандзё — Харада, джентльмен
Описание:Дора и Сунако близкие школьные подруги. Сунако любит и встречается с парнем Генри. Но жизнь складывается так, что замуж за Генри выходит Дора…
Потрясающая история о женских взаимопонимании и солидарности не смотря ни на что.
Доп. информация:Исходник найден в сети.Субтитрывзяты из раздачи busiko-http://rutracker.org/forum/viewtopic.php?t=3646732Огромное Спасибо Всем, без чьей помощи этот релиз не состоялся бы!Сценарий:Митсу Суяма, Tôma KitabayashiОператор:Таро СасакиХудожник:Tetsuzô Shibata, Котаро Иноэ

Рецензия

Софт

PgcDemux 1.2.0.5 -> разделение компонентов диска на файлы.
Subtitle Workshop, MaestroSBT, SubtitleCreator, DVD SubEdit (субтитры).
MuxMan DVD authoring Professional -> мультиплексирование и авторинг.
DVDRemake Pro 3.6.4 -> реавторинг DVD.
DVD Shrink 3.2 -> Сэмпл.--
Меню:Английский, статичное, неозвученное. Тип релиза:DVD5 (Custom)
Контейнер:DVD-Video
Видео:NTSC 4:3 (720x480) VBR, 7103 Кбит/сек, 23,976 (24000/1001) кадра/секАудио 1:Японский:AC3, 1 ch, 48.0 KHz, 192 Кбит/сек / Оригинал(без звука)Аудио 2:Японский:AC3, 2 ch, 48.0 KHz, 192 Кбит/сек / Музыкальное сопровождениеФормат субтитров:prerendered (DVD/IDX+SUB)

Dvd Info

Title: Japanese Girls at the Harbour DVD-5_Custom_Criterion.Eclipse Series #15
Size: 3.87 Gb ( 4 056 860,00 KBytes ) - DVD-5
Enabled regions: 1, 2, 3, 4, 5, 6, 7, 8
VTS_01 :
Play Length: 00:00:00
Video: NTSC 4:3 (720x480) VBR
VTS_02 :
Play Length: 01:11:48
Video: NTSC 4:3 (720x480) VBR
Audio:
Japanese (Dolby AC3, 1 ch)
Japanese (Dolby AC3, 2 ch)
Subtitles:
English
Russian
VTS_03 :
Play Length: 00:00:20
Video: NTSC 4:3 (720x480) VBR
VTS_04 :
Play Length: 00:00:00
Video: NTSC 4:3 (720x480) VBR

Mediainfo

Общее
Полное имя : F:\Japanese Girls at the Harbour DVD-5_Custom_Criterion.Eclipse Series #15\VIDEO_TS\VTS_02_3.VOB
Формат : MPEG-PS
Размер файла : 1024 Мбайт
Продолжительность : 18 м. 44 с.
Режим общего битрейта : Переменный
Общий поток : 7639 Кбит/сек
Видео
Идентификатор : 224 (0xE0)
Формат : MPEG Video
Версия формата : Version 2
Профиль формата : Main@Main
Параметр BVOP формата : Да
Параметр матрицы формата : Выборочная
Параметр GOP формата : M=3, N=12
Продолжительность : 18 м. 44 с.
Вид битрейта : Переменный
Битрейт : 7103 Кбит/сек
Максимальный битрейт : 9214 Кбит/сек
Ширина : 720 пикселей
Высота : 480 пикселей
Соотношение сторон : 4:3
Частота кадров : 23,976 (24000/1001) кадра/сек
Цветовое пространство : YUV
Субдискретизация насыщенности : 4:2:0
Битовая глубина : 8 бит
Тип развёртки : Прогрессивная
Порядок развёртки : 2:3 Pulldown
Метод сжатия : С потерями
Бит/(Пиксели*Кадры) : 0.857
Временной код первого кадра : 01:36:21:28
Оригинал временного кода : Group of pictures header
GOP, открыто/закрыто : Открыто
Размер потока : 952 Мбайт (93%)
Аудио #1
Идентификатор : 189 (0xBD)-128 (0x80)
Формат : AC-3
Формат/Информация : Audio Coding 3
Расширение режима : CM (complete main)
Параметр Endianness формата : Big
Режим смешивания : DVD-Video
Продолжительность : 18 м. 44 с.
Вид битрейта : Постоянный
Битрейт : 192 Кбит/сек
Каналы : 1 канал
Расположение каналов : Front: C
Частота : 48,0 КГц
Частота кадров : 31,250 кадров/сек (1536 spf)
Метод сжатия : С потерями
Задержка видео : -351 мс.
Размер потока : 25,7 Мбайт (3%)
Аудио #2
Идентификатор : 189 (0xBD)-129 (0x81)
Формат : AC-3
Формат/Информация : Audio Coding 3
Расширение режима : CM (complete main)
Параметр Endianness формата : Big
Режим смешивания : DVD-Video
Продолжительность : 18 м. 44 с.
Вид битрейта : Постоянный
Битрейт : 192 Кбит/сек
Каналы : 2 канала
Расположение каналов : Front: L R
Частота : 48,0 КГц
Частота кадров : 31,250 кадров/сек (1536 spf)
Метод сжатия : С потерями
Задержка видео : -351 мс.
Размер потока : 25,7 Мбайт (3%)
Текст
Идентификатор : 189 (0xBD)-33 (0x21)
Формат : RLE
Формат/Информация : Run-length encoding
Режим смешивания : DVD-Video

Скриншоты меню

Скриншоты фильма Полиграфия
Релиз: Уважаемые пользователи!Найдите пару минут поблагодарить релизера и высказаться в топике раздачи.Ваше мнение - бальзам для раздающего и пища для ума остальным пользователям.Мои раздачи
Вы не можете начинать темы
Вы не можете отвечать на сообщения
Вы не можете редактировать свои сообщения
Вы не можете удалять свои сообщения
Вы не можете голосовать в опросах
Вы не можете прикреплять файлы к сообщениям
Вы можете скачивать файлы
!ВНИМАНИЕ!

Сайт не предоставляет электронные версии произведений, а занимается лишь коллекционированием и каталогизацией ссылок, присылаемых и публикуемых на форуме нашими читателями. Если вы являетесь правообладателем какого-либо представленного материала и не желаете, чтобы ссылка на него находилась в нашем каталоге, свяжитесь с нами, и мы незамедлительно удалим ее. Файлы для обмена на трекере предоставлены пользователями сайта, и администрация не несет ответственности за их содержание. Просьба не заливать файлы, защищенные авторскими правами, а также файлы нелегального содержания!

Искали программы, игры, дополнения, музыка mp3, аниме, аудио книги, журналы? Добро пожаловать на свободный торрент трекер Torrents, у нас можно скачать бесплатно, без смс и регистрации и прочих ограничений лучшие, отборные сборки программ, игр. Скачать торрентом не составит труда даже не опытному пользователю. Раздачи ежедневно обновляются, только лучшие и качественные раздачи, подробные описания и скриншоты. Огромная коллекция программ для работы со звуком, графикой, дизайном, а так же множество плагинов и инструментов к ним с подробной инструкцией и рекомендациями. Прошивки для навигаторов, карты. Разнообразные игры, для Windows, Linux. В коллекцие есть и старые игры любых жанров, Rpg, Action, Shooter, strategy Множество дополнений, модификаций, сценариев для популярных игр в жанре экш, рпг, гонки, стратегии, логические игры. Множество аддонов и сценариев для Microsoft Flight Simulator Большая коллекция книг, учебников. Если нет возможности купить печатное издание - смело скачивайте цифровую версию книги или, быть может, журнала. Не любите читать - можно загрузить бесплатно аудикнигу. Для веб дизайнеров и программистов так же найдется множество специализированного софта, таких как: редакторы с подсветкой, среды программирования, компоненты, системы управления базами данных, разнообразные скрипты и шаблоны. Не так давно у нас появился материал для автолюбителей и владельцев мото - оригинальные и неоригинальные каталоги запчастей, книги и журналы по ремонту и обслуживанию, видеоуроки, статьи по чип тюнингу, прошивкам. Процедура получения контента элементарная, достаточно просто скачать торрент файл и добавить его в загрузку в вашем торрент клиенте. Если у вас нет специального торрент клиента, вы можете его скачать у нас.