Слепое чудовище / Blind Beast / Moju (Ясудзо Масумура) [1969, Япония, триллер, ужасы DVDRip] VO (Kallaider) 

Цитировать
Слепое чудовище / Blind Beast / Moju
Страна: Япония
Жанр: триллер, ужасы
Год выпуска: 1969
Продолжительность: 1:24
Перевод: Одноголосый закадровый Kallaider
Оригинальная аудиодорожка: японская
Режиссер: Ясудзо Масумура / Yasuzo Masumura
В ролях: Эйдзи Фунакоши / Eiji Funakoshi - в роли Мичио
Мако Мидори / Mako Midori - в роли Аки
Норико Сенгоку / Noriko Sengoku - в роли матери Мичио
Описание: История любви слепого скульптора Michio и молодой девушки-модели Aki. Эта история в жестоком и натуралистичном японском фильме превратилась в историю безумия и смерти. Слепой скульптор, помешанный на идее создать новое направление в искусстве, для которого красота женского тела сводится к осязанию, похищает молодую девушку. Затаскивает ее в свое убежище, где он создает свои «шедевры» - гигантские скульптуры обнаженных женщин и украшения из элементов женских тел, насилует пленницу, используя вместо ложа одну из своих статуй. Постепенно девушка сама влюбляется в насильника. Далее идет история «черной орхидеи» на японский лад – девушка постепенно познает прелесть садомазохистских игр, боль вызывает у нее наслаждение и мало-помалу игры становятся все более опасными – связывание переходит в порку, затем в ход идет нож и заканчивается тем, что сумасшедший любовник четвертует свою подругу и кончает с собой. Фильм полон откровенных сексуальных сцен, много жестокостей и характерного для японцев натурализма, а великолепная игра актеров и таинственный антураж логова маньяка не оставят Вас равнодушными.
Сэмпл: http://yadi.sk/i/zvN961gW3LyJEL
Оригинальная раздача: http://rutracker.org/forum/viewtopic.php?t=955377
Качество видео: DVDRip
Формат видео: avi
Видео: XVID, 640x272, 23.98fps, 1069Kbps
Аудио: mp3, 48 kHz, , 192 kbps, 2 ch

MediaInfo

General
Complete name : [OldFQ] Moju (1969).avi
Format : AVI
Format/Info : Audio Video Interleave
File size : 769 MiB
Duration : 1h 24mn
Overall bit rate : 1 279 Kbps
Writing application : Lavf56.40.101
Video
ID : 0
Format : MPEG-4 Visual
Format profile : Simple@L3
Format settings, BVOP : No
Format settings, QPel : No
Format settings, GMC : No warppoints
Format settings, Matrix : Default (MPEG)
Codec ID : XVID
Codec ID/Hint : XviD
Duration : 1h 24mn
Bit rate : 1 069 Kbps
Width : 640 pixels
Height : 272 pixels
Display aspect ratio : 2.35:1
Frame rate : 47.952 (47952/1000) fps
Original frame rate : 23.976 fps
Color space : YUV
Chroma subsampling : 4:2:0
Bit depth : 8 bits
Scan type : Progressive
Compression mode : Lossy
Bits/(Pixel*Frame) : 0.128
Stream size : 643 MiB (84%)
Title : Moju 1
Writing library : XviD 1.0.2 (UTC 2004-08-29)
Audio
ID : 1
Format : MPEG Audio
Format version : Version 1
Format profile : Layer 3
Mode : Joint stereo
Mode extension : MS Stereo
Codec ID : 55
Codec ID/Hint : MP3
Duration : 1h 24mn
Bit rate mode : Constant
Bit rate : 192 Kbps
Channel(s) : 2 channels
Sampling rate : 48.0 KHz
Compression mode : Lossy
Stream size : 115 MiB (15%)
Alignment : Aligned on interleaves
Interleave, duration : 24 ms (1.15 video frame)
Interleave, preload duration : 24 ms
Title : rus audio (Kallaider)
Writing library : LAME3.99.5

Скриншот c названием фильма

Скриншоты


Вы не можете начинать темы
Вы не можете отвечать на сообщения
Вы не можете редактировать свои сообщения
Вы не можете удалять свои сообщения
Вы не можете голосовать в опросах
Вы не можете прикреплять файлы к сообщениям
Вы можете скачивать файлы
!ВНИМАНИЕ!

Сайт не предоставляет электронные версии произведений, а занимается лишь коллекционированием и каталогизацией ссылок, присылаемых и публикуемых на форуме нашими читателями. Если вы являетесь правообладателем какого-либо представленного материала и не желаете, чтобы ссылка на него находилась в нашем каталоге, свяжитесь с нами, и мы незамедлительно удалим ее. Файлы для обмена на трекере предоставлены пользователями сайта, и администрация не несет ответственности за их содержание. Просьба не заливать файлы, защищенные авторскими правами, а также файлы нелегального содержания!

Искали программы, игры, дополнения, музыка mp3, аниме, аудио книги, журналы? Добро пожаловать на свободный торрент трекер Torrents, у нас можно скачать бесплатно, без смс и регистрации и прочих ограничений лучшие, отборные сборки программ, игр. Скачать торрентом не составит труда даже не опытному пользователю. Раздачи ежедневно обновляются, только лучшие и качественные раздачи, подробные описания и скриншоты. Огромная коллекция программ для работы со звуком, графикой, дизайном, а так же множество плагинов и инструментов к ним с подробной инструкцией и рекомендациями. Прошивки для навигаторов, карты. Разнообразные игры, для Windows, Linux. В коллекцие есть и старые игры любых жанров, Rpg, Action, Shooter, strategy Множество дополнений, модификаций, сценариев для популярных игр в жанре экш, рпг, гонки, стратегии, логические игры. Множество аддонов и сценариев для Microsoft Flight Simulator Большая коллекция книг, учебников. Если нет возможности купить печатное издание - смело скачивайте цифровую версию книги или, быть может, журнала. Не любите читать - можно загрузить бесплатно аудикнигу. Для веб дизайнеров и программистов так же найдется множество специализированного софта, таких как: редакторы с подсветкой, среды программирования, компоненты, системы управления базами данных, разнообразные скрипты и шаблоны. Не так давно у нас появился материал для автолюбителей и владельцев мото - оригинальные и неоригинальные каталоги запчастей, книги и журналы по ремонту и обслуживанию, видеоуроки, статьи по чип тюнингу, прошивкам. Процедура получения контента элементарная, достаточно просто скачать торрент файл и добавить его в загрузку в вашем торрент клиенте. Если у вас нет специального торрент клиента, вы можете его скачать у нас.