Жестокий мир / The Angry Street / Ikari no machi (Микио Нарусэ / Mikio Naruse) [1950, Япония, драма, DVDRip] VO (Kallaider) 

Цитировать
Жестокий мир / The Angry Street / Ikari no machi
Страна: Япония
Жанр: драма
Год выпуска: 1950
Продолжительность: 01:44:59
Перевод: Одноголосый закадровый Kallaider
Оригинальная аудиодорожка: японский
Режиссер: Микио Нарусэ / Mikio Naruse
В ролях: Дзюкити УНО, Ясуми ХАРА, Юрико ХАМАДА, Сэцуко ВАКАЯМА, Ёсико КУГА, Кумико МОКУСЁ, Такаси СИМУРА, Итиро СУГАИ, Кан ЯНАГИЯ, Мицуэ ТАТИБАНА, Миэ АСО, Тиэко ХИГАСИЯМА, Сатико МУРАСЭ, Кэйко КИСИ, Исао КИМУРА, Фудзио НАГАХАМА, Исао УБУКАТА, Хироси КОНДО, Киёси КАМОДА, Ко ИСИДА
Описание: В этом нравоучительном фильме Нарусэ представляет в качестве главного героя не женщину, а двух друзей студентов, которые в условиях послевоенной разрухи находят легкий способ разжиться деньгами. Только отношение к этому нечестному делу у них разное. Мори сгорает от стыда, Судо мечтает о более выгодной сделке, не обращая внимание на свою семью. Сестра Судо Масако влюблена в Мори и просит его спасти брата.©
Я взялся за этот фильм, чтобы посмотреть на раннюю работу Кэйко Киси, но в IMDB ошибка - в фильме снялась пожилая тезка известной красавицы.
Сэмпл: http://yadi.sk/i/p3wXtrUm3LzSVr
Качество видео: DVDRip
Формат видео: avi
Видео: XviD build 50, 720x544, 4:3, 23.976 fps, ~1692 kbps avg, 0.18 bit/pixel
Аудио: mp3, 48 kHz, , ~192 kbps, 2 ch

MediaInfo

General
Complete name : Ikari no machi [OldFQ].avi
Format : AVI
Format/Info : Audio Video Interleave
Format profile : OpenDML
File size : 1.40 GiB
Duration : 1h 44mn
Overall bit rate : 1 905 Kbps
Writing application : Lavf56.40.101
Video
ID : 0
Format : MPEG-4 Visual
Format profile : Advanced Simple@L5
Format settings, BVOP : 1
Format settings, QPel : No
Format settings, GMC : No warppoints
Format settings, Matrix : Default (H.263)
Codec ID : XVID
Codec ID/Hint : XviD
Duration : 1h 44mn
Bit rate : 1 693 Kbps
Width : 720 pixels
Height : 544 pixels
Display aspect ratio : 4:3
Frame rate : 47.952 fps
Original frame rate : 23.976 fps
Color space : YUV
Chroma subsampling : 4:2:0
Bit depth : 4 bits
Scan type : Progressive
Compression mode : Lossy
Bits/(Pixel*Frame) : 0.090
Stream size : 1.24 GiB (89%)
Title : Ikari no machi
Writing library : XviD 1.2.1 (UTC 2008-12-04)
Audio
ID : 1
Format : MPEG Audio
Format version : Version 1
Format profile : Layer 3
Mode : Joint stereo
Mode extension : MS Stereo
Codec ID : 55
Codec ID/Hint : MP3
Duration : 1h 44mn
Bit rate mode : Constant
Bit rate : 192 Kbps
Channel(s) : 2 channels
Sampling rate : 48.0 KHz
Compression mode : Lossy
Stream size : 144 MiB (10%)
Alignment : Aligned on interleaves
Interleave, duration : 24 ms (1.15 video frame)
Interleave, preload duration : 24 ms
Title : rus audio (Kallaider)
Writing library : LAME3.99.5

Скриншот c названием фильма

Скриншоты


Вы не можете начинать темы
Вы не можете отвечать на сообщения
Вы не можете редактировать свои сообщения
Вы не можете удалять свои сообщения
Вы не можете голосовать в опросах
Вы не можете прикреплять файлы к сообщениям
Вы можете скачивать файлы
!ВНИМАНИЕ!

Сайт не предоставляет электронные версии произведений, а занимается лишь коллекционированием и каталогизацией ссылок, присылаемых и публикуемых на форуме нашими читателями. Если вы являетесь правообладателем какого-либо представленного материала и не желаете, чтобы ссылка на него находилась в нашем каталоге, свяжитесь с нами, и мы незамедлительно удалим ее. Файлы для обмена на трекере предоставлены пользователями сайта, и администрация не несет ответственности за их содержание. Просьба не заливать файлы, защищенные авторскими правами, а также файлы нелегального содержания!

Искали программы, игры, дополнения, музыка mp3, аниме, аудио книги, журналы? Добро пожаловать на свободный торрент трекер Torrents, у нас можно скачать бесплатно, без смс и регистрации и прочих ограничений лучшие, отборные сборки программ, игр. Скачать торрентом не составит труда даже не опытному пользователю. Раздачи ежедневно обновляются, только лучшие и качественные раздачи, подробные описания и скриншоты. Огромная коллекция программ для работы со звуком, графикой, дизайном, а так же множество плагинов и инструментов к ним с подробной инструкцией и рекомендациями. Прошивки для навигаторов, карты. Разнообразные игры, для Windows, Linux. В коллекцие есть и старые игры любых жанров, Rpg, Action, Shooter, strategy Множество дополнений, модификаций, сценариев для популярных игр в жанре экш, рпг, гонки, стратегии, логические игры. Множество аддонов и сценариев для Microsoft Flight Simulator Большая коллекция книг, учебников. Если нет возможности купить печатное издание - смело скачивайте цифровую версию книги или, быть может, журнала. Не любите читать - можно загрузить бесплатно аудикнигу. Для веб дизайнеров и программистов так же найдется множество специализированного софта, таких как: редакторы с подсветкой, среды программирования, компоненты, системы управления базами данных, разнообразные скрипты и шаблоны. Не так давно у нас появился материал для автолюбителей и владельцев мото - оригинальные и неоригинальные каталоги запчастей, книги и журналы по ремонту и обслуживанию, видеоуроки, статьи по чип тюнингу, прошивкам. Процедура получения контента элементарная, достаточно просто скачать торрент файл и добавить его в загрузку в вашем торрент клиенте. Если у вас нет специального торрент клиента, вы можете его скачать у нас.