Тайные соперники / Секретные противники / The Secret Rivals / Nan quan bei tui (Джеймс Нам / James Nam, Нг Си-Юэнь / See-Yuen Ng) [1976, Гонконг, боевые искусства, DVDRip] AVO (Андрей Гаврилов) 

Цитировать
Тайные соперники / Секретные противники / The Secret Rivals / Nan quan bei tui
Страна: Гонконг
Жанр: боевые искусства
Год выпуска: 1976
Продолжительность: 01:24:37
Перевод: Авторский (одноголосый закадровый) Андрей Гаврилов
Субтитры: нет
Режиссер: Джеймс Нам / James Nam, Нг Си-Юэнь / See-Yuen Ng
В ролях: Джон Лью, Хванг Джанг-Ли, Вонг Тао, Джеймс Нам, Кори Юэнь
Описание: Шао Ю-Фей хочет отомстить за смерть своих родителей. Другой мститель - Шанг Юнг Вай, правительственный тайный агент, который внедрился в банду, чтобы избавиться от неё. Им придется объединиться, чтобы уничтожить главаря банды "Серебренного лиса", который является большим экспертом в боевых искусствах. Смогут ли два великих мастера кунг-фу противостоять банде жестоких убийц, и ее лидеру - непобедимому мастеру восточных единоборств ...
Сэмпл: http://multi-up.com/1164603
Качество видео: DVDRip (Исходник - DVD Video)
Формат видео: AVI
Видео: XviD 73, 656x304, (2,02:1), 23,976 fps, 1029 Кбит/с, 8 бит, 0.22 bit/pixel
Аудио: Русский (АС3, 2 ch (Front: L R), 48,0 KHz, 192 Kbps)

MediaInfo

Общее
Полное имя : F:\Видеофильмы\В и д е о\Тайные соперники (боевые искусства 1976 год).avi
Формат : AVI
Формат/Информация : Audio Video Interleave
Размер файла : 745 Мбайт
Продолжительность : 1 ч. 24 м.
Общий поток : 1230 Кбит/сек
Программа кодирования : VirtualDubMod 1.5.10.2 (build 2540/release)
Библиотека кодирования : VirtualDubMod build 2540/release
Видео
Идентификатор : 0
Формат : MPEG-4 Visual
Профиль формата : Advanced Simple@L5
Параметр BVOP формата : 2
Параметр QPel формата : Нет
Параметр GMC формата : Без точки перехода
Параметр матрицы формата : Выборочная
Идентификатор кодека : XVID
Идентификатор кодека/Подсказка : XviD
Продолжительность : 1 ч. 24 м.
Битрейт : 1029 Кбит/сек
Ширина : 656 пикселей
Высота : 304 пикселя
Соотношение сторон : 2,2:1
Частота кадров : 23,976 (24000/1001) кадра/сек
Цветовое пространство : YUV
Субдискретизация насыщенности : 4:2:0
Битовая глубина : 8 бит
Тип развёртки : Прогрессивная
Метод сжатия : С потерями
Бит/(Пиксели*Кадры) : 0.215
Размер потока : 623 Мбайт (84%)
Библиотека кодирования : XviD 73
Аудио
Идентификатор : 1
Формат : AC-3
Формат/Информация : Audio Coding 3
Расширение режима : CM (complete main)
Параметр Endianness формата : Big
Идентификатор кодека : 2000
Продолжительность : 1 ч. 24 м.
Вид битрейта : Постоянный
Битрейт : 192 Кбит/сек
Каналы : 2 канала
Расположение каналов : Front: L R
Частота : 48,0 КГц
Частота кадров : 31,250 кадров/сек (1536 spf)
Метод сжатия : С потерями
Размер потока : 116 Мбайт (16%)
Выравнивание : Разделение по промежуткам
Продолжительность промежутка : 42 мс. (1,00 видеокадр)
Время предзагрузки промежутка : 500 мс.

Скриншот c названием фильма

Сравнениеhttp://rutracker.org/forum/viewtopic.php?t=796826 http://screenshotcomparison.com/comparison/114365/picture:0
Вы не можете начинать темы
Вы не можете отвечать на сообщения
Вы не можете редактировать свои сообщения
Вы не можете удалять свои сообщения
Вы не можете голосовать в опросах
Вы не можете прикреплять файлы к сообщениям
Вы можете скачивать файлы
!ВНИМАНИЕ!

Сайт не предоставляет электронные версии произведений, а занимается лишь коллекционированием и каталогизацией ссылок, присылаемых и публикуемых на форуме нашими читателями. Если вы являетесь правообладателем какого-либо представленного материала и не желаете, чтобы ссылка на него находилась в нашем каталоге, свяжитесь с нами, и мы незамедлительно удалим ее. Файлы для обмена на трекере предоставлены пользователями сайта, и администрация не несет ответственности за их содержание. Просьба не заливать файлы, защищенные авторскими правами, а также файлы нелегального содержания!

Искали программы, игры, дополнения, музыка mp3, аниме, аудио книги, журналы? Добро пожаловать на свободный торрент трекер Torrents, у нас можно скачать бесплатно, без смс и регистрации и прочих ограничений лучшие, отборные сборки программ, игр. Скачать торрентом не составит труда даже не опытному пользователю. Раздачи ежедневно обновляются, только лучшие и качественные раздачи, подробные описания и скриншоты. Огромная коллекция программ для работы со звуком, графикой, дизайном, а так же множество плагинов и инструментов к ним с подробной инструкцией и рекомендациями. Прошивки для навигаторов, карты. Разнообразные игры, для Windows, Linux. В коллекцие есть и старые игры любых жанров, Rpg, Action, Shooter, strategy Множество дополнений, модификаций, сценариев для популярных игр в жанре экш, рпг, гонки, стратегии, логические игры. Множество аддонов и сценариев для Microsoft Flight Simulator Большая коллекция книг, учебников. Если нет возможности купить печатное издание - смело скачивайте цифровую версию книги или, быть может, журнала. Не любите читать - можно загрузить бесплатно аудикнигу. Для веб дизайнеров и программистов так же найдется множество специализированного софта, таких как: редакторы с подсветкой, среды программирования, компоненты, системы управления базами данных, разнообразные скрипты и шаблоны. Не так давно у нас появился материал для автолюбителей и владельцев мото - оригинальные и неоригинальные каталоги запчастей, книги и журналы по ремонту и обслуживанию, видеоуроки, статьи по чип тюнингу, прошивкам. Процедура получения контента элементарная, достаточно просто скачать торрент файл и добавить его в загрузку в вашем торрент клиенте. Если у вас нет специального торрент клиента, вы можете его скачать у нас.