Операция ниндзя 6: Чемпион в огне / Ninja Operation 6: Champion on Fire / Ninja Avengers; Shaolin Quick Draw (Джозеф Лай / Joseph Lai) [1987, Гонконг, боевые искусства, VHSRip] VO (Chesterfield) 

Цитировать
Операция ниндзя 6: Чемпион в огне / Ninja Operation 6: Champion on Fire / Ninja Avengers; Shaolin Quick Draw
Страна: Гонконг
Жанр: боевые искусства
Год выпуска: 1987
Продолжительность: 01:26:35
Перевод: Одноголосый закадровый Chesterfield
Субтитры: нет
Режиссер: Джозеф Лай / Joseph Lai
В ролях: Ричард Харрисон, Патрик Келли, Стюарт Смит, Стефан Бернхардт Лунг Фэй, Чанг И, Люси Ким, Эрик Лунг
Описание: Ринго выходит из тюрьмы. Годы проведённые там, не смогли перевоспитать его характер, и единственное его желание, это месть. Месть Антонио, человеку, который дал против него показания, и который стал причиной его заключения. Антонио тем временем подвязался работать на японцев, и с неподдельным энтузиазмом помогает им грабить Китай. После очередного грабежа, в ходе которого удалось украсть «Великую Китайскую Реликвию», вместо награды Антонио получает пулю от предводителя японцев. Раздосадованный такой оплатой труда, Антонио пускается в бега, но живой свидетель злодеяний японцам не нужен, и за беглецом отправляется погоня. Раненный беглец по идее обречён, но ему улыбается удача в лице Тигра, странствующего бойца - патриота вместе с которым Антонио даст бой японцам. Меж тем, на след Антонио смогли выйти люди Ринго, но и здесь беглецу сопутствует удача, у него есть старший брат - Великий Мастер Ниндзя по имени Гордон, который не даст в обиду брата...
Сэмпл: http://multi-up.com/1164509
Качество видео: VHSRip (Исходник DVD-Video)
Формат видео: AVI
Видео: XviD, 608x336, (16:9), 25,000 fps, 1075 Кбит/с, 8 бит
Аудио: Русский (MP3, 2 ch, 48,0 KHz, 128 Kbps)

MediaInfo

Общее
Полное имя : F:\Видеофильмы\В и д е о\Операция ниндзя 6 Чемпион в огне (боевые искусства 1987 год).avi
Формат : AVI
Формат/Информация : Audio Video Interleave
Размер файла : 751 Мбайт
Продолжительность : 1 ч. 26 м.
Общий поток : 1213 Кбит/сек
Программа кодирования : VirtualDubMod 1.5.10.3 | www.virtualdub-fr.org || (build 2550/release)
Библиотека кодирования : VirtualDubMod build 2550/release
Видео
Идентификатор : 0
Формат : MPEG-4 Visual
Профиль формата : Advanced Simple@L5
Параметр BVOP формата : 2
Параметр QPel формата : Нет
Параметр GMC формата : Без точки перехода
Параметр матрицы формата : Выборочная
Идентификатор кодека : XVID
Идентификатор кодека/Подсказка : XviD
Продолжительность : 1 ч. 26 м.
Битрейт : 1075 Кбит/сек
Ширина : 608 пикселей
Высота : 336 пикселей
Соотношение сторон : 16:9
Частота кадров : 25,000 кадров/сек
Цветовое пространство : YUV
Субдискретизация насыщенности : 4:2:0
Битовая глубина : 8 бит
Тип развёртки : Прогрессивная
Метод сжатия : С потерями
Бит/(Пиксели*Кадры) : 0.211
Размер потока : 666 Мбайт (89%)
Библиотека кодирования : XviD 73
Аудио
Идентификатор : 1
Формат : MPEG Audio
Версия формата : Version 1
Профиль формата : Layer 3
Идентификатор кодека : 55
Идентификатор кодека/Подсказка : MP3
Продолжительность : 1 ч. 26 м.
Вид битрейта : Постоянный
Битрейт : 128 Кбит/сек
Каналы : 2 канала
Частота : 48,0 КГц
Метод сжатия : С потерями
Размер потока : 79,3 Мбайт (11%)
Выравнивание : Соединение по промежуткам
Продолжительность промежутка : 40 мс. (1,00 видеокадр)
Время предзагрузки промежутка : 504 мс.
Библиотека кодирования : LAME3.99r
Настройки программы : -m s -V 4 -q 2 -lowpass 17 -b 128

Скриншот c названием фильма

Скриншоты

Вы не можете начинать темы
Вы не можете отвечать на сообщения
Вы не можете редактировать свои сообщения
Вы не можете удалять свои сообщения
Вы не можете голосовать в опросах
Вы не можете прикреплять файлы к сообщениям
Вы можете скачивать файлы
!ВНИМАНИЕ!

Сайт не предоставляет электронные версии произведений, а занимается лишь коллекционированием и каталогизацией ссылок, присылаемых и публикуемых на форуме нашими читателями. Если вы являетесь правообладателем какого-либо представленного материала и не желаете, чтобы ссылка на него находилась в нашем каталоге, свяжитесь с нами, и мы незамедлительно удалим ее. Файлы для обмена на трекере предоставлены пользователями сайта, и администрация не несет ответственности за их содержание. Просьба не заливать файлы, защищенные авторскими правами, а также файлы нелегального содержания!

Искали программы, игры, дополнения, музыка mp3, аниме, аудио книги, журналы? Добро пожаловать на свободный торрент трекер Torrents, у нас можно скачать бесплатно, без смс и регистрации и прочих ограничений лучшие, отборные сборки программ, игр. Скачать торрентом не составит труда даже не опытному пользователю. Раздачи ежедневно обновляются, только лучшие и качественные раздачи, подробные описания и скриншоты. Огромная коллекция программ для работы со звуком, графикой, дизайном, а так же множество плагинов и инструментов к ним с подробной инструкцией и рекомендациями. Прошивки для навигаторов, карты. Разнообразные игры, для Windows, Linux. В коллекцие есть и старые игры любых жанров, Rpg, Action, Shooter, strategy Множество дополнений, модификаций, сценариев для популярных игр в жанре экш, рпг, гонки, стратегии, логические игры. Множество аддонов и сценариев для Microsoft Flight Simulator Большая коллекция книг, учебников. Если нет возможности купить печатное издание - смело скачивайте цифровую версию книги или, быть может, журнала. Не любите читать - можно загрузить бесплатно аудикнигу. Для веб дизайнеров и программистов так же найдется множество специализированного софта, таких как: редакторы с подсветкой, среды программирования, компоненты, системы управления базами данных, разнообразные скрипты и шаблоны. Не так давно у нас появился материал для автолюбителей и владельцев мото - оригинальные и неоригинальные каталоги запчастей, книги и журналы по ремонту и обслуживанию, видеоуроки, статьи по чип тюнингу, прошивкам. Процедура получения контента элементарная, достаточно просто скачать торрент файл и добавить его в загрузку в вашем торрент клиенте. Если у вас нет специального торрент клиента, вы можете его скачать у нас.